Registrate para interactuar con dolvion

PVC-1 (2007) Dvd-rip latino
Peliculas audio Latino

PVC-1 (2007) Dvd-rip latino


PVC-1 (2007) Dvd-rip latino



PVC-1 (2007) Dvd-rip latino


PVC-1 (2007) Dvd-rip latino


PVC-1

Sinopsis:

A través de un plano secuencia de 85 minutos, narra la historia de Ofelia, una inocente mujer del campo que lucha contra el tiempo por su vida, cuando un grupo de delincuentes comunes encabezado por Benjamin, le pone un collar bomba para extorsionar a su marido por una insignificante suma de dinero.

Título original:

PVC-1

Año:

2007

Duración:

86 min.

País:

Colombia Colombia

Dirección:

Spiros Stathoulopoulos

Guion:

Spiros Stathoulopoulos, Dwight Istanbulian

Fotografía:

Spiros Stathoulopoulos

Reparto:

Daniel Páez, Hugo Pereira, Alberto Sornoza, Merida Urquia

Productora:

Goliath Entertainment / HDFilms / Hermano Films

Género:

Drama | Basado en hechos reales


PVC-1 (2007) Dvd-rip latino


General

Format : AVI
Format/Info : Audio Video Interleave
File size : 1.09 GiB
Duration : 1 h 26 min
Overall bit rate : 1 821 kb/s


Video

Format : MPEG-4 Visual
Codec ID : XVID
Codec ID/Hint : XviD
Duration : 1 h 26 min
Bit rate : 1 622 kb/s
Width : 720 pixels
Height : 400 pixels
Display aspect ratio : 16:9
Frame rate : 25.000 FPS
Stream size : 998 MiB (89%)


Audio
ID : 1
Format : AC-3
Duration : 1 h 25 min
Bit rate : 192 kb/s
Channel(s) : 2 channels
Channel positions : Front: L R
Sampling rate : 48.0 kHz
Stream size : 118 MiB (11%)
Language : Espanol






PVC-1 (2007) Dvd-rip latino
PVC-1 (2007) Dvd-rip latino

PVC-1 (2007) Dvd-rip latino

PVC-1 (2007) Dvd-rip latino

PVC-1 (2007) Dvd-rip latino

PVC-1 (2007) Dvd-rip latino

PVC-1 (2007) Dvd-rip latino



Para poder ver los links necesitas estar Registrado .
O.. ya tienes cuenta? Logueate!





PVC-1 (2007) Dvd-rip latino

rgsrhijotijhgjrhlj


PVC-1 (2007) Dvd-rip latino

!!!!!!!! LO QUE NO SE COMPARTE SE EPIERDE....................!!!!!!!!!
Si lo que encontraste en este Post te sirvió , no te olvides de agradecérselo al Uploader ;
Tu comentario y agradecimiento es su única recompensa y estimulo para seguir compartiendo.
Estadísticas
Creado 17.05.2018 a las 08:52 hs
Categoría Peliculas audio Latino
  • 1
    Medallas
  • 0
    Favoritos
  • 52
    Visitas
  • 5.5/10
    LPDLW score
  • 6
    Votantes
  • 51
    Puntos
  • 0
    Seguidores
  • 0
    Recomendado
Comentarios
12
Cargando comentarios espera un momento...

Para poder comentar necesitas ser un usuario registrado , ¡ Registrarme Ahora !. O.. ya tienes usuario? Logueate!
Creado por    dolvion
Ver perfil de dolvion dolvion
Hombre Full User  Mensaje
986 23 9
Medallas ganadas por este Post
1
Últimos visitantes
Punteadores
Tags
Posts relacionados
Mas Post de     dolvion
Términos y condiciones
Privacidad
Report - DMCA
Contacto
LoPeorDeLaWeb  © 2014 - 2018
Carga   0.818    Mls  
Basado en  PHPost 
Diseño de Kmario19
Adaptado por  jor51