Registrate para interactuar con Caffenio

100 Cosas que Hacer Antes de Highschool - Temporada 1 [01/22
Series con audio Dual

100 Cosas que Hacer Antes de Highschool - Temporada 1 [01/22


Esta serie es del mismo creador que "El Manual de Sobrevivencia Escolar de Ned" el imaginante Scott Fellows y a su vez es una versión mejorada de la misma pero esta vez contada desde el lado femenino. Una serie muy entretenida y divertida.

Aún está en emisión en latinoamérica asi que tardaré un poco en capturar los audios pero seguiré actualizando conforme los vaya capturando, saludos y gracias por visitar mis aportes.



100 Cosas que Hacer Antes de Highschool - Temporada 1 [01/22



100 Cosas que Hacer Antes de Highschool - Temporada 1 [01/22

100 Cosas que Hacer Antes de Highschool - Temporada 1 [01/22

100 Cosas que Hacer Antes de Highschool - Temporada 1 [01/22


Video

Format : AVC
Format/Info : Advanced Video Codec
Format profile : [email protected]
Format settings, CABAC : Yes
Format settings, ReFrames : 5 frames
Codec ID : V_MPEG4/ISO/AVC
Duration : 20mn 16s
Bit rate : 1 160 Kbps
Width : 720 pixels
Height : 404 pixels
Display aspect ratio : 16:9
Frame rate mode : Constant
Frame rate : 23.976 (24000/1001) fps

Audio #1

Format : MPEG Audio
Format profile : Layer 3
Codec ID/Hint : MP3
Duration : 20mn 15s
Bit rate mode : Constant
Bit rate : 128 Kbps
Channel(s) : 2 channels
Sampling rate : 44.1 KHz
Frame rate : 38.281 fps (1152 spf)
Stream size : 18.6 MiB (9%)
Language : Spanish
Default : Yes
Forced : No

Audio #2

Format : AAC
Format profile : LC
Codec ID : A_AAC
Duration : 20mn 16s
Bit rate : 124 Kbps
Channel(s) : 2 channels
Sampling rate : 48.0 KHz
Frame rate : 46.875 fps (1024 spf)
Stream size : 18.0 MiB (9%)
Language : English
Default : No
Forced : No




100 Cosas que Hacer Antes de Highschool - Temporada 1 [01/22100 Cosas que Hacer Antes de Highschool - Temporada 1 [01/22100 Cosas que Hacer Antes de Highschool - Temporada 1 [01/22100 Cosas que Hacer Antes de Highschool - Temporada 1 [01/22100 Cosas que Hacer Antes de Highschool - Temporada 1 [01/22


100 Cosas que Hacer Antes de Highschool - Temporada 1 [01/22

Para poder ver los links necesitas estar Registrado .
O.. ya tienes cuenta? Logueate!

100 Cosas que Hacer Antes de Highschool - Temporada 1 [01/22

LoPeorDeLaWeb.li_byCaffenio


100 Cosas que Hacer Antes de Highschool - Temporada 1 [01/22

Si lo que encontraste en este Post te sirvió , no te olvides de agradecérselo al Uploader ;
Tu comentario y agradecimiento es su única recompensa y estimulo para seguir compartiendo.
Estadísticas
Creado 15.02.2016 a las 20:34 hs
Categoría Series con audio Dual
  • 6
    Medallas
  • 1
    Favoritos
  • 572
    Visitas
  • 10/10
    LPDLW score
  • 12
    Votantes
  • 110
    Puntos
  • 0
    Seguidores
  • 1
    Recomendado
Comentarios
37
Cargando comentarios espera un momento...

Para poder comentar necesitas ser un usuario registrado , ¡ Registrarme Ahora !. O.. ya tienes usuario? Logueate!
Creado por    Caffenio
Ver perfil de Caffenio Caffenio
Hombre Pirata  Mensaje
8,960 84 761
Medallas ganadas por este Post
6
Punteadores
Tags
Posts relacionados
Mas Post de     Caffenio
Términos y condiciones
Privacidad
Report - DMCA
Contacto
LoPeorDeLaWeb  © 2014 - 2016
Carga   0.365    Mls  
Basado en  PHPost 
Diseño de Kmario19
Adaptado por  jor51