Registrate para interactuar con Caffenio

The 100 - Temporada 3 [02/??] 480p.web-dl.mkv MEGA
Series Subtituladas

The 100 - Temporada 3 [02/??] 480p.web-dl.mkv MEGA


The 100 - Temporada 3 [02/??] 480p.web-dl.mkv MEGA

Durante dos temporadas, los 100, los rebeldes que enviaron a la Tierra, han estado en guerra. Primero en guerra contra ellos mismos, luego con los terrestres y finalmente con la gente de Mount Weather. Muchos han perdido la vida a lo largo del camino. Todos han perdido su inocencia. Aprendieron de la manera dura que en la lucha por la supervivencia, no hay héroes o villanos. Hay sólo vivos y muertos. Pero ahora que la guerra ha terminado y la batalla contra Mount Weather se ganó, los prisioneros regresaron a casa, a un mundo aparentemente pacífico, ¿pero pueden encontrar la paz dentro de sí mismos después de lo que han tenido que hacer para escapar? ¿Y hay más en la vida que tratar de sobrevivir? Por desgracia, su nuevo sentido de normalidad durará poco tiempo y su vida será cambiada para siempre, viejas amenazas y nuevas pruebas de su lealtad les obligarán a ir más allá de sus límites y hacerlos cuestionarse lo que realmente significa ser humano. En primer lugar, lucharon para sobrevivir. Luego lucharon por sus amigos. Ahora, van a luchar por la raza humana.


The 100 - Temporada 3 [02/??] 480p.web-dl.mkv MEGA



The 100 - Temporada 3 [02/??] 480p.web-dl.mkv MEGA



Video

Format : AVC
Format/Info : Advanced Video Codec
Format profile : [email protected]
Format settings, CABAC : Yes
Format settings, ReFrames : 4 frames
Codec ID : V_MPEG4/ISO/AVC
Duration : 42mn 28s
Bit rate : 708 Kbps
Width : 856 pixels
Height : 480 pixels
Display aspect ratio : 16:9
Frame rate mode : Variable
Frame rate : 23.976 fps
Color space : YUV
Chroma subsampling : 4:2:0
Bit depth : 8 bits
Scan type : Progressive
Bits/(Pixel*Frame) : 0.072
Stream size : 215 MiB (84%)

Audio

ID : 2
Format : AAC
Format/Info : Advanced Audio Codec
Format profile : LC
Codec ID : A_AAC
Duration : 42mn 28s
Bit rate : 132 Kbps
Channel(s) : 2 channels
Channel positions : Front: L R
Sampling rate : 48.0 KHz
Stream size : 40.2 MiB (16%)
Language : English
Default : Yes
Forced : No

Text #1

Language : Spanish
Default : Yes
Forced : No

Text #2

Language : English
Default : No
Forced : No

The 100 - Temporada 3 [02/??] 480p.web-dl.mkv MEGAThe 100 - Temporada 3 [02/??] 480p.web-dl.mkv MEGAThe 100 - Temporada 3 [02/??] 480p.web-dl.mkv MEGAThe 100 - Temporada 3 [02/??] 480p.web-dl.mkv MEGAThe 100 - Temporada 3 [02/??] 480p.web-dl.mkv MEGAThe 100 - Temporada 3 [02/??] 480p.web-dl.mkv MEGA


The 100 - Temporada 3 [02/??] 480p.web-dl.mkv MEGA

Para poder ver los links necesitas estar Registrado .
O.. ya tienes cuenta? Logueate!


The 100 - Temporada 3 [02/??] 480p.web-dl.mkv MEGA


LoPeorDeLaWeb.li_byCaffenio


The 100 - Temporada 3 [02/??] 480p.web-dl.mkv MEGA

Si lo que encontraste en este Post te sirvió , no te olvides de agradecérselo al Uploader ;
Tu comentario y agradecimiento es su única recompensa y estimulo para seguir compartiendo.
Estadísticas
Creado 25.01.2016 a las 00:25 hs
Categoría Series Subtituladas
  • 3
    Medallas
  • 0
    Favoritos
  • 383
    Visitas
  • 5.5/10
    LPDLW score
  • 6
    Votantes
  • 55
    Puntos
  • 0
    Seguidores
  • 2
    Recomendado
Comentarios
15
Cargando comentarios espera un momento...

Para poder comentar necesitas ser un usuario registrado , ¡ Registrarme Ahora !. O.. ya tienes usuario? Logueate!
Creado por    Caffenio
Ver perfil de Caffenio Caffenio
Hombre Pirata  Mensaje
8,965 84 761
Medallas ganadas por este Post
3
Punteadores
Tags
Posts relacionados
Mas Post de     Caffenio
Términos y condiciones
Privacidad
Report - DMCA
Contacto
LoPeorDeLaWeb  © 2014 - 2016
Carga   0.420    Mls  
Basado en  PHPost 
Diseño de Kmario19
Adaptado por  jor51