Registrate para interactuar con Caffenio

Crash & Bernstein - Temporada 1 Cap. 3 y 4 (Avi/Xvid) MEGA
Series Latino

Crash & Bernstein - Temporada 1 Cap. 3 y 4 (Avi/Xvid) MEGA


A sus doce años, Wyatt Bernstein se muere de ganas por tener un hermano con el que divertirse haciendo cosas de chicos y, cuando Crash llega a su vida, eso es justo lo que encuentra. Ahora, Wyatt tiene que enseñarle a su hermano bruto y gritón lo que significa formar parte de una familia, mientras Crash le enseña a él cómo desmelenarse
y pasárselo en grande.



Crash & Bernstein - Temporada 1 Cap. 3 y 4 (Avi/Xvid) MEGA


Crash & Bernstein - Temporada 1 Cap. 3 y 4 (Avi/Xvid) MEGA

Crash & Bernstein - Temporada 1 Cap. 3 y 4 (Avi/Xvid) MEGA


Título original Crash & Bernstein
Año 2012
Duración 30 min.
País Estados Unidos
Director Eric Friedman (Creator), Bruce Leddy,
Sean Mulcahy, Robbie Countryman, Richard Correll
Guión Eric Friedman
Música Jamie Dunlap
Fotografía Gary W. Scott
Reparto Cole Jensen, Tim Lagasse, Landry Bender, Paul McGinnis,
Oana Gregory, Aaron R Landon, Mary Birdsong, Mckenna Grace, Danny Woodburn
Productora It's a Laugh Productions
Género Serie de TV. Comedia. Infantil | Marionetas. Sitcom
Web oficial http://www.disney.es/disney-xd/crash-and-bernstein/

Crash & Bernstein - Temporada 1 Cap. 3 y 4 (Avi/Xvid) MEGA


Video
ID : 0
Format : MPEG-4 Visual
Format profile : Advanced [email protected]
Format settings, BVOP : 2
Format settings, QPel : No
Format settings, GMC : No warppoints
Format settings, Matrix : Default (H.263)
Codec ID : XVID
Codec ID/Hint : XviD
Duration : 21mn 6s
Bit rate : 1 557 Kbps
Width : 640 pixels
Height : 480 pixels
Display aspect ratio : 4:3
Frame rate : 24.000 fps
Color space : YUV
Chroma subsampling : 4:2:0
Bit depth : 8 bits
Scan type : Progressive
Compression mode : Lossy
Bits/(Pixel*Frame) : 0.211
Stream size : 235 MiB (92%)
Writing library : XviD 1.2.1 (UTC 2008-12-04)

Audio
ID : 1
Format : MPEG Audio
Format version : Version 1
Format profile : Layer 3
Mode : Joint stereo
Mode extension : MS Stereo
Codec ID : 55
Codec ID/Hint : MP3
Duration : 21mn 6s
Bit rate mode : Constant
Bit rate : 128 Kbps
Channel(s) : 2 channels
Sampling rate : 44.1 KHz
Compression mode : Lossy
Delay relative to video : 42ms
Stream size : 19.3 MiB (8%)
Alignment : Aligned on interleaves
Interleave, duration : 26 ms (0.63 video frame)
Interleave, preload duratio : 522 ms
Writing library : LAME3.98.4



Crash & Bernstein - Temporada 1 Cap. 3 y 4 (Avi/Xvid) MEGA
Crash & Bernstein - Temporada 1 Cap. 3 y 4 (Avi/Xvid) MEGA

Crash & Bernstein - Temporada 1 Cap. 3 y 4 (Avi/Xvid) MEGA

Crash & Bernstein - Temporada 1 Cap. 3 y 4 (Avi/Xvid) MEGA



Para poder ver los links necesitas estar Registrado .
O.. ya tienes cuenta? Logueate!




Crash & Bernstein - Temporada 1 Cap. 3 y 4 (Avi/Xvid) MEGA

LoPeorDeLaWeb.li_byCaffenio


Crash & Bernstein - Temporada 1 Cap. 3 y 4 (Avi/Xvid) MEGA

Si lo que encontraste en este Post te sirvió , no te olvides de agradecérselo al Uploader ;
Tu comentario y agradecimiento es su única recompensa y estimulo para seguir compartiendo.
Estadísticas
Creado 26.07.2015 a las 06:06 hs
Categoría Series Latino
  • 5
    Medallas
  • 0
    Favoritos
  • 779
    Visitas
  • 6.5/10
    LPDLW score
  • 7
    Votantes
  • 65
    Puntos
  • 0
    Seguidores
  • 0
    Recomendado
Comentarios
25
Cargando comentarios espera un momento...

Para poder comentar necesitas ser un usuario registrado , ¡ Registrarme Ahora !. O.. ya tienes usuario? Logueate!
Creado por    Caffenio
Ver perfil de Caffenio Caffenio
Hombre Pirata  Mensaje
9,045 84 761
Medallas ganadas por este Post
5
Punteadores
Tags
Posts relacionados
Mas Post de     Caffenio
Términos y condiciones
Privacidad
Report - DMCA
Contacto
LoPeorDeLaWeb  © 2014 - 2016
Carga   0.328    Mls  
Basado en  PHPost 
Diseño de Kmario19
Adaptado por  jor51