Registrate para interactuar con vaquer

red cliff [acantilado rojo][2009][720p][espanish]
Peliculas con audio Español

red cliff [acantilado rojo][2009][720p][espanish]


saludos nuevamente esta pelicula en mi parecer es una obra maestra de la guerra, Mencionar la superproducción 'Acantilado rojo' ('Red Cliff') es instar a la paciencia. Y es que esta película dirigida por John Woo, esperado regreso a la épica y con producción china, es una de esas películas que se espera con impaciencia por estos lares. 'Acantilado rojo' es un proyecto que desde su inicio despertó enorme interés. No en vano, se trata de la adaptación por parte del prestigioso Woo de una de las obras literarias más importantes de China.



red cliff [acantilado rojo][2009][720p][espanish]


red cliff [acantilado rojo][2009][720p][espanish]

red cliff [acantilado rojo][2009][720p][espanish]


SINOPSIS:
China, finales de la Dinastía Han (208 d.C.). Tras una larga guerra civil, el temible Primer Ministro Cao Cao consigue que el veleidoso Emperador Han le declare la guerra a los reinos de Xu y Wu con el fin de unificar China. Su ejército ataca y derrota al recién creado Reino de Xu, gobernado por el benevolente Liu Bei. Los ciudadanos de Xu huyen bajo la protección de las tropas de Liu Bei y de sus dos generales de mayor rango (y hermanos de sangre): Guan Yu y Zhang Fei.
La versión original de "Red Cliff" consta de dos películas de 280 minutos de duración: "Chi Bi" (2008) y "Chi Bi Xia: Jue zhan tian xia" (2009). Para su distribución en Occidente se hizo una sola película de 148 minutos. Se han eliminado además detalles sobre algunos personajes, como las motivaciones de Zhuge Liang para robar las 100.000 flechas, partes de la infiltración de Sung Shangxiang o todas las secuencias de la caza del tigre. (FILMAFFINITY)
CRITICA:
"Presta nuevo significado a la noción de épica. Siendo la película más cara jamás hecha en China, es realmente inmensa (...) Red Cliff es una sinfonía visual de un director legendario."


red cliff [acantilado rojo][2009][720p][espanish]


General
Unique ID : 232415851084522838012000215754491511341 (0xAED9AA2AC9B8DCD3917DB84C0443422D)
Complete name : I:\Acantilado Rojo (V.Internacional)(2009).mkv
Format : Matroska
Format version : Version 1
File size : 2.54 GiB
Duration : 2h 21mn
Overall bit rate : 2 559 Kbps
Encoded date : UTC 2010-09-18 10:13:38
Writing application : mkvmerge v2.4.2 ('Oh My God') built on Jan 18 2009 17:30:28
Writing library : libebml v0.7.7 + libmatroska v0.8.1

Video
ID : 1
Format : AVC
Format/Info : Advanced Video Codec
Format profile : [email protected]
Format settings, CABAC : Yes
Format settings, ReFrames : 5 frames
Codec ID : V_MPEG4/ISO/AVC
Duration : 2h 21mn
Bit rate : 2 300 Kbps
Width : 1 280 pixels
Height : 544 pixels
Display aspect ratio : 2.35:1
Frame rate mode : Constant
Frame rate : 25.000 fps
Color space : YUV
Chroma subsampling : 4:2:0
Bit depth : 8 bits
Scan type : Progressive
Bits/(Pixel*Frame) : 0.132
Stream size : 2.23 GiB (88%)
Writing library : x264 core 98 r1649 c54c47d
Encoding settings : cabac=1 / ref=5 / deblock=1:0:0 / analyse=0x3:0x133 / me=umh / subme=9 / psy=1 / psy_rd=1.00:0.00 / mixed_ref=1 / me_range=16 / chroma_me=1 / trellis=2 / 8x8dct=1 / cqm=0 / deadzone=21,11 / fast_pskip=1 / chroma_qp_offset=-2 / threads=9 / sliced_threads=0 / nr=0 / decimate=1 / interlaced=0 / constrained_intra=0 / bframes=3 / b_pyramid=2 / b_adapt=2 / b_bias=0 / direct=3 / weightb=1 / weightp=2 / keyint=250 / keyint_min=25 / scenecut=40 / intra_refresh=0 / rc_lookahead=60 / rc=2pass / mbtree=1 / bitrate=2300 / ratetol=1.0 / qcomp=0.60 / qpmin=10 / qpmax=51 / qpstep=4 / cplxblur=20.0 / qblur=0.5 / vbv_maxrate=40000 / vbv_bufsize=40000 / ip_ratio=1.40 / aq=1:1.00 / nal_hrd=none
Language : English
Default : Yes
Forced : No

Audio
ID : 2
Format : AC-3
Format/Info : Audio Coding 3
Mode extension : CM (complete main)
Format settings, Endianness : Big
Codec ID : A_AC3
Duration : 2h 21mn
Bit rate mode : Constant
Bit rate : 256 Kbps
Channel(s) : 6 channels
Channel positions : Front: L C R, Side: L R, LFE
Sampling rate : 48.0 KHz
Bit depth : 16 bits
Compression mode : Lossy
Stream size : 260 MiB (10%)
Default : Yes
Forced : No

Text
ID : 3
Format : UTF-8
Codec ID : S_TEXT/UTF8
Codec ID/Info : UTF-8 Plain Text
Default : Yes
Forced : No




red cliff [acantilado rojo][2009][720p][espanish]
red cliff [acantilado rojo][2009][720p][espanish]

red cliff [acantilado rojo][2009][720p][espanish]

red cliff [acantilado rojo][2009][720p][espanish]

red cliff [acantilado rojo][2009][720p][espanish]

red cliff [acantilado rojo][2009][720p][espanish]

red cliff [acantilado rojo][2009][720p][espanish]



Para poder ver los links necesitas estar Registrado .
O.. ya tienes cuenta? Logueate!






red cliff [acantilado rojo][2009][720p][espanish]

vaquer
Si lo que encontraste en este Post te sirvió , no te olvides de agradecérselo al Uploader ;
Tu comentario y agradecimiento es su única recompensa y estimulo para seguir compartiendo.
Estadísticas
Creado 02.04.2016 a las 09:59 hs
Categoría Peliculas con audio Español
  • 2
    Medallas
  • 0
    Favoritos
  • 157
    Visitas
  • 4/10
    LPDLW score
  • 4
    Votantes
  • 40
    Puntos
  • 0
    Seguidores
  • 0
    Recomendado
Comentarios
6
Cargando comentarios espera un momento...

Para poder comentar necesitas ser un usuario registrado , ¡ Registrarme Ahora !. O.. ya tienes usuario? Logueate!
Creado por    vaquer
Ver perfil de vaquer vaquer
Hombre Supremo  Mensaje
5,124 62 556
Medallas ganadas por este Post
2
Punteadores
Tags
Posts relacionados
Mas Post de     vaquer
Términos y condiciones
Privacidad
Report - DMCA
Contacto
LoPeorDeLaWeb  © 2014 - 2016
Carga   0.352    Mls  
Basado en  PHPost 
Diseño de Kmario19
Adaptado por  jor51