Registrate para interactuar con vaquer

"la fuerza del cariño[Terms of Endearment][1983][480p][esp]&
Peliculas con audio Español

"la fuerza del cariño[Terms of Endearment][1983][480p][esp]&


buenas amigos aquí les traigo una película que me costo encontrarlo en español espero que sea de su agrado ya que soy novato espero seguir aportando...



"la fuerza del cariño[Terms of Endearment][1983][480p][esp]&


"la fuerza del cariño[Terms of Endearment][1983][480p][esp]&

"la fuerza del cariño[Terms of Endearment][1983][480p][esp]&


SINOPSIS:
Aurora (Shirley MacLaine) y Emma (Debra Winger) son una madre y una hija muy unidas, pero con puntos de vista muy distintos sobre la vida. Aurora, que está viuda, es una mujer temperamental pero de buen corazón, y Emma es una joven rebelde que está deseando salir de casa e independizarse; lo malo es que para conseguirlo sigue el camino más convencional: casarse. Por su parte, Aurora tiene un romance otoñal con un ex-astronauta (Jack Nicholson). A través de los años, madre e hija intentan siempre buscar la forma de soportarse y encontrar la felicidad. (FILMAFFINITY)
PREMIOS:
1983: 5 Oscars: Película, director, actriz (MacLaine), actor sec. (Nicholson), guión adaptado
1983: 4 Globos de Oro, incluyendo Mejor película - Drama. 6 nominaciones
1983: National Board of Review: Mejor película (ex-aequo)
1983: Círculo de críticos de Nueva York: Mejor película, Mejor actriz, Mejor actor secundario
1983: Sindicato de Directores (DGA): Mejor director
1983: Premios David di Donatello: Mejor actriz extranjera (Shirley MacLaine)
CRITICA:
Shirley MacLaine y Debra Winger son una madre y su hija cuya relación, a lo largo de sus vidas, atravesará por todo tipo de momentos; buenos y malos, tiernos y crueles, en los que se enfrentan y se aman. Por si todo suena demasiado familiar no se preocupen: también sale un genial Nicholson robando corazones y planos. 5 Oscars -tan excesivos comos sus previas 11 nominaciones- acabaron por encumbrar una comedia melodramática que, gracias a un brillante guión que evoca tanto lágrimas como sonrisas -todas muy calculadas pero efectivas-, consiguió un apabullante éxito de taquilla, crítica y público.


"la fuerza del cariño[Terms of Endearment][1983][480p][esp]&


FUERZA DEL CARIÑO (1983)\La fuerza del cariño Lat Rip_2.mp4
Format : MPEG-4
Format profile : Base Media
Codec ID : isom
File size : 455 MiB
Duration : 2h 6mn
Overall bit rate mode : Variable
Overall bit rate : 503 Kbps
Encoded date : UTC 2014-07-16 16:09:40
Tagged date : UTC 2014-07-16 16:09:40

Video
ID : 1
Format : AVC
Format/Info : Advanced Video Codec
Format profile : [email protected]
Format settings, CABAC : Yes
Format settings, ReFrames : 5 frames
Codec ID : avc1
Codec ID/Info : Advanced Video Coding
Duration : 2h 6mn
Bit rate : 457 Kbps
Maximum bit rate : 2 778 Kbps
Width : 720 pixels
Height : 384 pixels
Display aspect ratio : 1.85:1
Original display aspect rat : 1.85:1
Frame rate mode : Constant
Frame rate : 25.000 fps
Color space : YUV
Chroma subsampling : 4:2:0
Bit depth : 8 bits
Scan type : Progressive
Bits/(Pixel*Frame) : 0.066
Stream size : 414 MiB (91%)
Title : /var/www/cgi-bin/uploads/01/00737/lq6qtvjwef2j.h264 - Imported with GPAC 0.4.6-DEV (internal rev. 8)
Writing library : x264 core 118
Encoding settings : cabac=1 / ref=5 / deblock=1:0:0 / analyse=0x3:0x113 / me=umh / subme=8 / psy=1 / psy_rd=1.00:0.00 / mixed_ref=1 / me_range=16 / chroma_me=1 / trellis=1 / 8x8dct=1 / cqm=0 / deadzone=21,11 / fast_pskip=1 / chroma_qp_offset=-2 / threads=12 / sliced_threads=0 / nr=0 / decimate=1 / interlaced=0 / bluray_compat=0 / constrained_intra=0 / bframes=3 / b_pyramid=2 / b_adapt=2 / b_bias=0 / direct=3 / weightb=1 / open_gop=0 / weightp=2 / keyint=250 / keyint_min=25 / scenecut=40 / intra_refresh=0 / rc_lookahead=50 / rc=crf / mbtree=1 / crf=24.0 / qcomp=0.60 / qpmin=0 / qpmax=69 / qpstep=4 / ip_ratio=1.40 / aq=1:1.00
Encoded date : UTC 2014-07-16 16:09:40
Tagged date : UTC 2014-07-16 16:09:44

Audio
ID : 2
Format : AAC
Format/Info : Advanced Audio Codec
Format profile : HE-AAC / LC
Codec ID : 40
Duration : 2h 6mn
Bit rate mode : Variable
Bit rate : 42.1 Kbps
Maximum bit rate : 48.8 Kbps
Channel(s) : 1 channel
Channel positions : Front: C
Sampling rate : 44.1 KHz / 22.05 KHz
Compression mode : Lossy
Stream size : 38.1 MiB (8%)
Encoded date : UTC 2014-07-16 16:09:44
Tagged date : UTC 2014-07-16 16:09:44




"la fuerza del cariño[Terms of Endearment][1983][480p][esp]&
"la fuerza del cariño[Terms of Endearment][1983][480p][esp]&

"la fuerza del cariño[Terms of Endearment][1983][480p][esp]&

"la fuerza del cariño[Terms of Endearment][1983][480p][esp]&

"la fuerza del cariño[Terms of Endearment][1983][480p][esp]&

"la fuerza del cariño[Terms of Endearment][1983][480p][esp]&

"la fuerza del cariño[Terms of Endearment][1983][480p][esp]&



Para poder ver los links necesitas estar Registrado .
O.. ya tienes cuenta? Logueate!




"la fuerza del cariño[Terms of Endearment][1983][480p][esp]&

vaquer
Si lo que encontraste en este Post te sirvió , no te olvides de agradecérselo al Uploader ;
Tu comentario y agradecimiento es su única recompensa y estimulo para seguir compartiendo.
Estadísticas
Creado 01.04.2016 a las 14:52 hs
Categoría Peliculas con audio Español
  • 2
    Medallas
  • 1
    Favoritos
  • 154
    Visitas
  • 9.5/10
    LPDLW score
  • 9
    Votantes
  • 95
    Puntos
  • 0
    Seguidores
  • 0
    Recomendado
Comentarios
12
Cargando comentarios espera un momento...

Para poder comentar necesitas ser un usuario registrado , ¡ Registrarme Ahora !. O.. ya tienes usuario? Logueate!
Creado por    vaquer
Ver perfil de vaquer vaquer
Hombre Supremo  Mensaje
5,124 62 556
Medallas ganadas por este Post
2
Punteadores
Tags
Posts relacionados
Mas Post de     vaquer
Términos y condiciones
Privacidad
Report - DMCA
Contacto
LoPeorDeLaWeb  © 2014 - 2016
Carga   0.415    Mls  
Basado en  PHPost 
Diseño de Kmario19
Adaptado por  jor51