Registrate para interactuar con dolvion

Xtro Uncensored director's cut
Peliculas con audio Español

Xtro Uncensored director's cut


Xtro Uncensored director's cut



Xtro Uncensored director's cut


Xtro Uncensored director's cut


"No todos los extraterrestres son amistosos............"

Prohibida en Gran Bretaña

no recomendada a menores de 18 años

Sinopsis
Sam Phillips (Philip Sayer) y su hijo Tony (Simon Nash) están jugando fuera de su granja cuando, de repente, el padre es abducido por una luz intensa que se posa sobre ella y secuestrado por una nave extraterreste. Tres años después, el padre aparece de repente, volverá a la Tierra, pero las cosas ya no serán iguales en su hogar. Su mujer Rachel vive ahora con otro hombre, Joe. Éste no se fía de Sam, y Rachel se verá en una difícil encrucijada, obligada a decidir entre dos hombres.
Tony pronto sospechará que su padre ya no es el mismo que aquel hombre que desapareció súbitamente y que hace tiempo que dejó de ser humano. De esta forma, se verá obligado a actuar para detener al intruso que lleva dentro de su cuerpo Sam y que pretende infestar a millones de personas del resto del mundo con sus larvas.

Tras el visionado de E.T El Extraterrestre, Harry Bromley Davenport debió preguntarse algo más o menos así: “Como quedaría esto mezclado con Alien, el Octavo Pasajero y un drama social británico al uso?” Gracias a Dios, la Providencia o lo que sea, Harry se puso manos a la obra y acabó facturando la que posiblemente sea la explotación más extraña de la película de Ridley Scott, o era de la de Spielberg? Sea como sea, XTRO es una de las películas más bizarras de la época clásica del videoclub y solo por eso merece un visionado.
Sam (Philip Sayer) y su hijo Tony (Simon Nash) están jugando apaciblemente en la casa que tienen en la campiña inglesa cuando una extraña luz oscurece el cielo y una fuerza invisible y por lo tanto más fácil y barata de representar hace desaparecer a Sam. Tres años después la mujer de Sam, Rachel (Bernice Stegers), ha reconstruido su vida con un fotógrafo, Joe (Danny Brainins) ya que cree que Sam les abandonó por alguna pelandrusca. Nada más lejos de la realidad; Sam ha vuelto a la Tierra en la forma de un asqueroso alienígena cuadrúpedo que mata a una pareja de viajeros y luego viola a una chica que vive cerca del lugar donde ha aterrizado. Esta acaba pariendo entre horribles dolores a Sam, que la destroza entera saliendo de ella en su forma adulta. Tony empieza a tener sueños proféticos sobre el regreso de su padre, cosa que empieza a asustar a Rachel.





Xtro Uncensored director's cut


Fecha de estreno 1 de abril de 1984 (1h 24min)

Dirigida por Harry Bromley Davenport

Reparto Bernice Stegers, Philip Sayer, Arthur Whybrow más

Géneros Terror, Ciencia ficción

País Gran Bretaña

Format : MPEG-4
File size : 420 MiB
Duration : 1 h 20 min
Overall bit rate : 728 kb/s

Video
ID : 1
Format : AVC
Format/Info : Advanced Video Codec
Duration : 1 h 20 min
Bit rate : 600 kb/s
Width : 640 pixels
Height : 480 pixels
Display aspect ratio : 4:3
Frame rate mode : Constant
Frame rate : 25.000 FPS
Stream size : 344 MiB (82%)

Audio
ID : 2
Format : AAC
Format/Info : Advanced Audio Codec
Format profile : LC
Codec ID : mp4a-40-2
Duration : 1 h 20 min
Bit rate : 128 kb/s
Channel(s) : 2 channels
Channel positions : Front: L R
Sampling rate : 44.1 kHz
Stream size : 73.8 MiB (18%)




Xtro Uncensored director's cut
Xtro Uncensored director's cut

Xtro Uncensored director's cut

Xtro Uncensored director's cut

Xtro Uncensored director's cut

Xtro Uncensored director's cut



Xtro Uncensored director's cut

sfgsjfhgjsgfjksgfkjhsdjfgjskaf


Xtro Uncensored director's cut

!!!!!!!! LO QUE NO SE COMPARTE SE EPIERDE....................!!!!!!!!!
Si lo que encontraste en este Post te sirvió , no te olvides de agradecérselo al Uploader ;
Tu comentario y agradecimiento es su única recompensa y estimulo para seguir compartiendo.
Estadísticas
Creado 09.04.2018 a las 22:08 hs
Categoría Peliculas con audio Español
  • 2
    Medallas
  • 0
    Favoritos
  • 110
    Visitas
  • 3.5/10
    LPDLW score
  • 4
    Votantes
  • 35
    Puntos
  • 0
    Seguidores
  • 0
    Recomendado
Comentarios
10
Cargando comentarios espera un momento...

Para poder comentar necesitas ser un usuario registrado , ¡ Registrarme Ahora !. O.. ya tienes usuario? Logueate!
Creado por    dolvion
Ver perfil de dolvion dolvion
Hombre Full User  Mensaje
656 17 8
Medallas ganadas por este Post
2
Últimos visitantes
Punteadores
Tags
Posts relacionados
Mas Post de     dolvion
Términos y condiciones
Privacidad
Report - DMCA
Contacto
LoPeorDeLaWeb  © 2014 - 2018
Carga   5.168    Mls  
Basado en  PHPost 
Diseño de Kmario19
Adaptado por  jor51