Registrate para interactuar con vaquer

"dos mulas para la hermana sara[1970][1080p][dual]"
Peliculas con audio Dual

"dos mulas para la hermana sara[1970][1080p][dual]"


saludos a todos les traigo un clásico western que la disfruten amigos de LPDLW...



"dos mulas para la hermana sara[1970][1080p][dual]"


"dos mulas para la hermana sara[1970][1080p][dual]"

"dos mulas para la hermana sara[1970][1080p][dual]"


SINOPSIS:
En México ha estallado la guerra entre los seguidores de Juárez y las tropas francesas del emperador Maximiliano de Austria. Hogan (Clint Eastwood), un duro mercenario, salva a una monja (Shirley MacLaine) del ataque de unos malhechores. Juntos emprenden un accidentado viaje en el que, a pesar de sus diferencias, quedará de manifiesto que tienen mucho en común. (FILMAFFINITY)
CRITICAS:
"Western de estética cercana al 'spaguetti', sostenido por una autoparódica interpretación del actor"


"dos mulas para la hermana sara[1970][1080p][dual]"


Complete name : I:\Dos Mulas y una Mujer.m-1080p.Dual.mkv
Format : Matroska
Format version : Version 2
File size : 3.92 GiB
Duration : 1h 44mn
Overall bit rate : 5 353 Kbps
Movie name : Dos mulas y una mujer-1970 Tala99
Encoded date : UTC 2015-01-20 12:29:35
Writing application : mkvmerge v4.9.1 ('Ich will') creado el Jul 11 2011 23:53:15
Writing library : libebml v1.2.1 + libmatroska v1.1.1

Video
ID : 1
Format : AVC
Format/Info : Advanced Video Codec
Format profile : [email protected]
Format settings, CABAC : Yes
Format settings, ReFrames : 5 frames
Codec ID : V_MPEG4/ISO/AVC
Duration : 1h 44mn
Bit rate : 4 703 Kbps
Width : 1 920 pixels
Height : 816 pixels
Display aspect ratio : 2.35:1
Frame rate mode : Constant
Frame rate : 24.000 fps
Color space : YUV
Chroma subsampling : 4:2:0
Bit depth : 8 bits
Scan type : Progressive
Bits/(Pixel*Frame) : 0.125
Stream size : 3.45 GiB (88%)
Title : Dos mulas y una mujer-1970 Tala99
Language : Spanish
Default : Yes
Forced : No

Audio #1
ID : 2
Format : AC-3
Format/Info : Audio Coding 3
Mode extension : CM (complete main)
Format settings, Endianness : Big
Codec ID : A_AC3
Duration : 1h 44mn
Bit rate mode : Constant
Bit rate : 160 Kbps
Channel(s) : 2 channels
Channel positions : Front: L R
Sampling rate : 48.0 KHz
Bit depth : 16 bits
Compression mode : Lossy
Stream size : 120 MiB (3%)
Language : Spanish
Default : Yes
Forced : No

Audio #2
ID : 3
Format : AC-3
Format/Info : Audio Coding 3
Mode extension : CM (complete main)
Format settings, Endianness : Big
Codec ID : A_AC3
Duration : 1h 44mn
Bit rate mode : Constant
Bit rate : 384 Kbps
Channel(s) : 6 channels
Channel positions : Front: L C R, Side: L R, LFE
Sampling rate : 48.0 KHz
Bit depth : 16 bits
Compression mode : Lossy
Stream size : 288 MiB (7%)
Language : English
Default : No
Forced : No

Text #1
ID : 4
Format : UTF-8
Codec ID : S_TEXT/UTF8
Codec ID/Info : UTF-8 Plain Text
Language : Spanish
Default : Yes
Forced : No

Text #2
ID : 5
Format : UTF-8
Codec ID : S_TEXT/UTF8
Codec ID/Info : UTF-8 Plain Text
Language : English
Default : No
Forced : No



"dos mulas para la hermana sara[1970][1080p][dual]"
"dos mulas para la hermana sara[1970][1080p][dual]"

"dos mulas para la hermana sara[1970][1080p][dual]"

"dos mulas para la hermana sara[1970][1080p][dual]"

"dos mulas para la hermana sara[1970][1080p][dual]"

"dos mulas para la hermana sara[1970][1080p][dual]"

"dos mulas para la hermana sara[1970][1080p][dual]"



Para poder ver los links necesitas estar Registrado .
O.. ya tienes cuenta? Logueate!



"dos mulas para la hermana sara[1970][1080p][dual]"

vaquer
Si lo que encontraste en este Post te sirvió , no te olvides de agradecérselo al Uploader ;
Tu comentario y agradecimiento es su única recompensa y estimulo para seguir compartiendo.
Estadísticas
Creado 08.04.2016 a las 00:13 hs
Categoría Peliculas con audio Dual
  • 3
    Medallas
  • 0
    Favoritos
  • 271
    Visitas
  • 3/10
    LPDLW score
  • 3
    Votantes
  • 30
    Puntos
  • 0
    Seguidores
  • 0
    Recomendado
Comentarios
6
Cargando comentarios espera un momento...

Para poder comentar necesitas ser un usuario registrado , ¡ Registrarme Ahora !. O.. ya tienes usuario? Logueate!
Creado por    vaquer
Ver perfil de vaquer vaquer
Hombre Supremo  Mensaje
5,124 62 556
Medallas ganadas por este Post
3
Punteadores
Tags
Posts relacionados
Mas Post de     vaquer
Términos y condiciones
Privacidad
Report - DMCA
Contacto
LoPeorDeLaWeb  © 2014 - 2016
Carga   0.516    Mls  
Basado en  PHPost 
Diseño de Kmario19
Adaptado por  jor51