Registrate para interactuar con vaquer

"ip man 3 [2015][1080p][dual]"
Peliculas con audio Dual

"ip man 3 [2015][1080p][dual]"


aquí les traigo esta película del gran Donnie Yen enfrentandose a mike tyson a disfrutarla...saludos



"ip man 3 [2015][1080p][dual]"


"ip man 3 [2015][1080p][dual]"

"ip man 3 [2015][1080p][dual]"


SINOPSIS:
Una banda de criminales dirigidos por un constructor ambicioso intentan desalojar la escuela local pero el maestro Ip Man no está dispuesto a ceder. Paralelamente, un nuevo maestro de Wing Chun ha llegado a la ciudad. (FILMAFFINITY)
CRITICA:
Posiblemente, y junto a la secuela de Tigre y Dragón, ha sido una de las películas más esperadas de artes marciales en el último año. El resultado, aunque no es mala película, tampoco resulta una experiencia del todo satisfactoria, y por lo menos se puede decir que está a la altura de la segunda parte, quedándose bastante lejos de la primera, como era de esperar.


"ip man 3 [2015][1080p][dual]"


General
Complete name : D:\Ip man 3 2015 1080p-dual-lat\Ip.man.3.2015.1080p-dual-lat.mp4
Format : MPEG-4
Codec ID : M4V
File size : 1.61 GiB
Duration : 1h 44mn
Overall bit rate mode : Variable
Overall bit rate : 2 197 Kbps
Encoded date : UTC 2016-04-06 12:20:54
Tagged date : UTC 2016-04-06 12:20:54
Writing application : My MP4Box GUI 0.6.0.6 <http://my-mp4box-gui.zymichost.com>

Video
ID : 1
Format : AVC
Format/Info : Advanced Video Codec
Format profile : [email protected]
Format settings, CABAC : Yes
Format settings, ReFrames : 5 frames
Codec ID : avc1
Codec ID/Info : Advanced Video Coding
Duration : 1h 44mn
Bit rate : 1 900 Kbps
Maximum bit rate : 12.3 Mbps
Width : 1 920 pixels
Height : 816 pixels
Display aspect ratio : 2.35:1
Frame rate mode : Constant
Frame rate : 24.000 fps
Color space : YUV
Chroma subsampling : 4:2:0
Bit depth : 8 bits
Scan type : Progressive
Bits/(Pixel*Frame) : 0.051
Stream size : 1.39 GiB (86%)
Title : Ip.man.3.2015.1080p.bluray.x264-kaka-1_track1_und.h264
Audio #1
ID : 2
Format : AAC
Format/Info : Advanced Audio Codec
Format profile : LC
Codec ID : 40
Duration : 1h 44mn
Bit rate mode : Variable
Bit rate : 163 Kbps
Maximum bit rate : 202 Kbps
Channel(s) : 2 channels
Channel positions : Front: L R
Sampling rate : 48.0 KHz
Compression mode : Lossy
Stream size : 122 MiB (7%)
Title : IP.man.latino_fixed-250.aac
Language : Spanish
Encoded date : UTC 2016-04-06 12:21:07
Tagged date : UTC 2016-04-06 12:21:15

Audio #2
ID : 3
Format : AAC
Format/Info : Advanced Audio Codec
Format profile : LC
Codec ID : 40
Duration : 1h 44mn
Source duration : 1h 44mn
Bit rate mode : Variable
Nominal bit rate : 128 Kbps
Maximum bit rate : 144 Kbps
Channel(s) : 2 channels
Channel positions : Front: L R
Sampling rate : 48.0 KHz
Compression mode : Lossy
Source stream size : 96.1 MiB (6%)
Title : Ip.man.3.2015.1080p.bluray.x264-kaka-1_track2_chi.aac
Language : Chinese
Encoded date : UTC 2016-04-06 12:21:11
Tagged date : UTC 2016-04-06 12:21:15





"ip man 3 [2015][1080p][dual]"
"ip man 3 [2015][1080p][dual]"

"ip man 3 [2015][1080p][dual]"

"ip man 3 [2015][1080p][dual]"

"ip man 3 [2015][1080p][dual]"

"ip man 3 [2015][1080p][dual]"

"ip man 3 [2015][1080p][dual]"



Para poder ver los links necesitas estar Registrado .
O.. ya tienes cuenta? Logueate!






"ip man 3 [2015][1080p][dual]"

vaquer
Si lo que encontraste en este Post te sirvió , no te olvides de agradecérselo al Uploader ;
Tu comentario y agradecimiento es su única recompensa y estimulo para seguir compartiendo.
Estadísticas
Creado 07.04.2016 a las 19:30 hs
Categoría Peliculas con audio Dual
  • 2
    Medallas
  • 0
    Favoritos
  • 227
    Visitas
  • 6.5/10
    LPDLW score
  • 7
    Votantes
  • 65
    Puntos
  • 0
    Seguidores
  • 0
    Recomendado
Comentarios
14
Cargando comentarios espera un momento...

Para poder comentar necesitas ser un usuario registrado , ¡ Registrarme Ahora !. O.. ya tienes usuario? Logueate!
Creado por    vaquer
Ver perfil de vaquer vaquer
Hombre Supremo  Mensaje
5,129 62 555
Medallas ganadas por este Post
2
Punteadores
Tags
Posts relacionados
Mas Post de     vaquer
Términos y condiciones
Privacidad
Report - DMCA
Contacto
LoPeorDeLaWeb  © 2014 - 2016
Carga   0.326    Mls  
Basado en  PHPost 
Diseño de Kmario19
Adaptado por  jor51