Registrate para interactuar con vaquer

"hero[heroe][2002][1080p][trial]"
Peliculas con audio Dual

"hero[heroe][2002][1080p][trial]"


bueno saludos a todos ahora les traigo una película en mi parecer una obra maestra lírica del cine de aventuras..



"hero[heroe][2002][1080p][trial]"


"hero[heroe][2002][1080p][trial]"

"hero[heroe][2002][1080p][trial]"


SINOPSIS:
Cuando China estaba dividida en siete reinos que se enfrentaron entre sí para conseguir la hegemonía, la miseria y la muerte asolaron el país. Al rey Qin, que vivía obsesionado con la idea de unificar China y convertirse en el primer Emperador, intentaron asesinarlo los otros monarcas. Entre los asesinos contratados, los más temibles eran Espada Rota, Nieve Volante y Cielo. Qin promete poder, riquezas y una audiencia privada a quien consiga vencer a los tres sicarios, pero es una tarea casi imposible. De modo que, cuando el enigmático "Sin Nombre" llega al palacio con las legendarias armas de los asesinos, el rey se muestra impaciente por oír su historia. (FILMAFFINITY)
PREMIOS:
2002: Nominada al Oscar: Mejor película de habla no inglesa
2002: Nominada al Globo de Oro: Mejor película de habla no inglesa
2002: Círculo de críticos de Nueva YorK: Mejor fotografía
2002: Festival de Toronto: Mejor película de habla no inglesa
2003: Festival de Berlín: Sección oficial de largometrajes, Premio Alfred Bauer
2004: Asociación de Críticos de Chicago: Mejor Fotografía
CRITICA:
A la sombra del éxito de la taiwanesa "Tigre y dragón", en China reclutaron a su más prestigioso director para crear una épica superproducción sobre los reinados que gobernaron lo que hoy es el gigante asiático. El resultado también fue exitoso, pues "Hero" estuvo nominada al Oscar a la mejor película extranjera, y recibió un vendaval de elogios por parte de crítica y público. Para lograrlo pusieron al servicio de Yimou las mayores estrellas del cine de Asia, miles de extras, una historia sencilla como pocas y, sobre todo, los más hermosos decorados que se hayan podido concebir, con toda una amplia e imaginativa gama de colores y estaciones, paisajes de una belleza insuperable que harían las delicias de los directores de anuncios de colonias. ¿Y artísticamente... qué salió? Pues eso: el más bello y simple anuncio de colonia visual que se haya filmado jamás. 96 coloridos minutos de una fragancia de artes marciales y nobles sentimientos, la belleza al servicio de las pupilas. La colonia se podría llamar "Symmetry", de Zhang Yimou... y todavía no sé si me encantó o me resultó preciosamente estúpida.


"hero[heroe][2002][1080p][trial]"


Complete name : G:\pelis_vaquer\Hero.m1080p.Ac3.mkv
Format : Matroska
Format version : Version 1
File size : 3.05 GiB
Duration : 1h 39mn
Overall bit rate : 4 400 Kbps
Movie name : Hero m-1080p.guerrero36
Encoded date : UTC 2012-04-16 02:14:19
Writing application : mkvmerge v2.4.2 ('Oh My God') built on Jan 18 2009 17:30:28
Writing library : libebml v0.7.7 + libmatroska v0.8.1

Video
ID : 1
Format : AVC
Format/Info : Advanced Video Codec
Format profile : [email protected]
Format settings, CABAC : Yes
Format settings, ReFrames : 4 frames
Codec ID : V_MPEG4/ISO/AVC
Duration : 1h 39mn
Bit rate : 3 450 Kbps
Width : 1 920 pixels
Height : 816 pixels
Display aspect ratio : 2.35:1
Frame rate mode : Constant
Frame rate : 24.000 fps
Original frame rate : 23.976 fps
Color space : YUV
Chroma subsampling : 4:2:0
Bit depth : 8 bits
Scan type : Progressive
Bits/(Pixel*Frame) : 0.092
Stream size : 2.33 GiB (77%)
Language : Spanish
Default : Yes
Forced : No

Audio #1
ID : 2
Format : AC-3
Format/Info : Audio Coding 3
Mode extension : CM (complete main)
Format settings, Endianness : Big
Codec ID : A_AC3
Duration : 1h 39mn
Bit rate mode : Constant
Bit rate : 448 Kbps
Channel(s) : 6 channels
Channel positions : Front: L C R, Side: L R, LFE
Sampling rate : 48.0 KHz
Bit depth : 16 bits
Compression mode : Lossy
Stream size : 318 MiB (10%)
Language : Spanish
Default : Yes
Forced : No

Audio #2
ID : 4
Format : AC-3
Format/Info : Audio Coding 3
Mode extension : CM (complete main)
Format settings, Endianness : Big
Codec ID : A_AC3
Duration : 1h 39mn
Bit rate mode : Constant
Bit rate : 384 Kbps
Channel(s) : 6 channels
Channel positions : Front: L C R, Side: L R, LFE
Sampling rate : 48.0 KHz
Bit depth : 16 bits
Compression mode : Lossy
Stream size : 272 MiB (9%)
Language : English
Default : No
Forced : No

Audio #3
ID : 6
Format : AC-3
Format/Info : Audio Coding 3
Mode extension : CM (complete main)
Format settings, Endianness : Big
Codec ID : A_AC3
Duration : 1h 39mn
Bit rate mode : Constant
Bit rate : 112 Kbps
Channel(s) : 2 channels
Channel positions : Front: L R
Sampling rate : 48.0 KHz
Bit depth : 16 bits
Compression mode : Lossy
Stream size : 79.4 MiB (3%)
Language : Chinese
Default : No
Forced : No




"hero[heroe][2002][1080p][trial]"
"hero[heroe][2002][1080p][trial]"

"hero[heroe][2002][1080p][trial]"

"hero[heroe][2002][1080p][trial]"

"hero[heroe][2002][1080p][trial]"

"hero[heroe][2002][1080p][trial]"

"hero[heroe][2002][1080p][trial]"



Para poder ver los links necesitas estar Registrado .
O.. ya tienes cuenta? Logueate!






"hero[heroe][2002][1080p][trial]"

vaquer
Si lo que encontraste en este Post te sirvió , no te olvides de agradecérselo al Uploader ;
Tu comentario y agradecimiento es su única recompensa y estimulo para seguir compartiendo.
Estadísticas
Creado 07.04.2016 a las 13:52 hs
Categoría Peliculas con audio Dual
  • 2
    Medallas
  • 1
    Favoritos
  • 181
    Visitas
  • 5.5/10
    LPDLW score
  • 6
    Votantes
  • 53
    Puntos
  • 0
    Seguidores
  • 2
    Recomendado
Comentarios
11
Cargando comentarios espera un momento...

Para poder comentar necesitas ser un usuario registrado , ¡ Registrarme Ahora !. O.. ya tienes usuario? Logueate!
Creado por    vaquer
Ver perfil de vaquer vaquer
Hombre Supremo  Mensaje
5,129 62 555
Medallas ganadas por este Post
2
Punteadores
Tags
Posts relacionados
Mas Post de     vaquer
Términos y condiciones
Privacidad
Report - DMCA
Contacto
LoPeorDeLaWeb  © 2014 - 2016
Carga   0.344    Mls  
Basado en  PHPost 
Diseño de Kmario19
Adaptado por  jor51