Registrate para interactuar con vaquer

"en primera plana[Spotlight][2015][1080p][dual]"
Peliculas con audio Dual

"en primera plana[Spotlight][2015][1080p][dual]"


saludos aquí les traigo una excelente película ganadora del oscar a mejor película 2016 Un poco lenta al principio pero vale la pena esperar hasta el final. Una gran muestra de como debe ser el periodismo de investigación.



"en primera plana[Spotlight][2015][1080p][dual]"


"en primera plana[Spotlight][2015][1080p][dual]"

"en primera plana[Spotlight][2015][1080p][dual]"


SINOPSIS:
En 2002, un equipo de reporteros de investigación del Boston Globe destapó los escándalos de pederastia cometidos durante décadas por curas de Massachussets. La publicación de estos hechos, que la archidiócesis de Boston intentó ocultar, sacudió a la Iglesia Católica como institución. (FILMAFFINITY)
PREMIOS:
2015: 2 Premios Oscar: mejor película y guión original. 6 nominaciones
2015: Globos de Oro: Nominada a mejor película drama, director y guión
2015: Premios BAFTA: Mejor guión original
2015: American Film Institute (AFI): Top 10 - Mejores películas del año
2015: Festival de Toronto: 2ª Finalista Mejor película
2015: Festival de Venecia: Sección oficial largometrajes (fuera de concurso)
2015: Independent Spirit Awards: 5 premios incluyendo mejor película y director
2015: National Board of Review (NBR): Mejores 10 películas del año
2015: Círculo de Críticos de Nueva York: Mejor actor (Keaton)
2015: Críticos de Los Angeles: Mejor película y guión
2015: Critics Choice Awards: Mejor película, reparto y guión original
2015: Sindicato de Directores (DGA): Nominada a mejor director
2015: Sindicato de Guionistas (WGA): Mejor guión original
2015: Sindicato de Actores (SAG): Mejor reparto
2015: Premios Gotham: Mejor película, reparto y guión
2015: Satellite Awards: Mejor película, director, guión y reparto. 8 nominaciones
2015: Asociación de Críticos de Chicago: Mejor guión. 4 nominaciones
CRITICA:
"'Spotlight' es un triunfo del cine, de la escritura, de los derechos civiles, del periodismo, del trabajo. (...) la película es una guía profesional y moral sobre el ejercicio de nuestro trabajo. El de cualquiera."


"en primera plana[Spotlight][2015][1080p][dual]"


Complete name : D:\Spotlight.2015.1080p-dual-lat.mp4
Format : MPEG-4
Codec ID : M4V
File size : 1.98 GiB
Duration : 2h 9mn
Overall bit rate mode : Variable
Overall bit rate : 2 196 Kbps
Encoded date : UTC 2016-04-02 18:37:38
Tagged date : UTC 2016-04-02 18:37:38
Writing application : My MP4Box GUI 0.6.0.6 <http://my-mp4box-gui.zymichost.com>

Video
ID : 1
Format : AVC
Format/Info : Advanced Video Codec
Format profile : [email protected]
Format settings, CABAC : Yes
Format settings, ReFrames : 4 frames
Codec ID : avc1
Codec ID/Info : Advanced Video Coding
Duration : 2h 9mn
Bit rate : 1 900 Kbps
Maximum bit rate : 7 987 Kbps
Width : 1 920 pixels
Height : 1 036 pixels
Display aspect ratio : 1.85:1
Frame rate mode : Constant
Frame rate : 23.976 fps
Color space : YUV
Chroma subsampling : 4:2:0
Bit depth : 8 bits
Scan type : Progressive
Bits/(Pixel*Frame) : 0.040
Stream size : 1.71 GiB (86%)
Title : Spotlight.2015.1080p.bluray.x264.blow-1_track1_und.h264
Writing library : x264 core 142 r2479 dd79a61
Encoding settings : cabac=1 / ref=4 / deblock=1:-1:-1 / analyse=0x3:0x113 / me=umh / subme=8 / psy=1 / psy_rd=1.00:0.15 / mixed_ref=1 / me_range=16 / chroma_me=1 / trellis=1 / 8x8dct=1 / cqm=0 / deadzone=21,11 / fast_pskip=1 / chroma_qp_offset=-3 / threads=12 / lookahead_threads=2 / sliced_threads=0 / nr=0 / decimate=1 / interlaced=0 / bluray_compat=0 / constrained_intra=0 / bframes=3 / b_pyramid=2 / b_adapt=2 / b_bias=0 / direct=3 / weightb=1 / open_gop=0 / weightp=2 / keyint=240 / keyint_min=24 / scenecut=40 / intra_refresh=0 / rc_lookahead=50 / rc=2pass / mbtree=1 / bitrate=1900 / ratetol=1.0 / qcomp=0.60 / qpmin=0 / qpmax=69 / qpstep=4 / cplxblur=20.0 / qblur=0.5 / vbv_maxrate=62500 / vbv_bufsize=78125 / nal_hrd=none / filler=0 / ip_ratio=1.40 / aq=1:1.00
Encoded date : UTC 2016-04-02 18:37:38
Tagged date : UTC 2016-04-02 18:37:58
Color primaries : BT.709
Transfer characteristics : BT.709
Matrix coefficients : BT.709
Color range : Limited

Audio #1
ID : 2
Format : AAC
Format/Info : Advanced Audio Codec
Format profile : LC
Codec ID : 40
Duration : 2h 9mn
Bit rate mode : Variable
Bit rate : 162 Kbps
Maximum bit rate : 191 Kbps
Channel(s) : 2 channels
Channel positions : Front: L R
Sampling rate : 48.0 KHz
Compression mode : Lossy
Stream size : 150 MiB (7%)
Title : Spotlight.latino_fixed50.aac
Language : Spanish
Encoded date : UTC 2016-04-02 18:37:50
Tagged date : UTC 2016-04-02 18:37:58

Audio #2
ID : 3
Format : AAC
Format/Info : Advanced Audio Codec
Format profile : LC
Codec ID : 40
Duration : 2h 9mn
Source duration : 2h 9mn
Bit rate mode : Variable
Nominal bit rate : 128 Kbps
Maximum bit rate : 155 Kbps
Channel(s) : 2 channels
Channel positions : Front: L R
Sampling rate : 48.0 KHz
Compression mode : Lossy
Source stream size : 118 MiB (6%)
Title : Spotlight.2015.1080p.bluray.x264.blow-1_track2_eng.aac
Language : English
Encoded date : UTC 2016-04-02 18:37:54
Tagged date : UTC 2016-04-02 18:37:58



"en primera plana[Spotlight][2015][1080p][dual]"
"en primera plana[Spotlight][2015][1080p][dual]"

"en primera plana[Spotlight][2015][1080p][dual]"

"en primera plana[Spotlight][2015][1080p][dual]"

"en primera plana[Spotlight][2015][1080p][dual]"

"en primera plana[Spotlight][2015][1080p][dual]"

"en primera plana[Spotlight][2015][1080p][dual]"



Para poder ver los links necesitas estar Registrado .
O.. ya tienes cuenta? Logueate!






"en primera plana[Spotlight][2015][1080p][dual]"

vaquer
Si lo que encontraste en este Post te sirvió , no te olvides de agradecérselo al Uploader ;
Tu comentario y agradecimiento es su única recompensa y estimulo para seguir compartiendo.
Estadísticas
Creado 03.04.2016 a las 20:26 hs
Categoría Peliculas con audio Dual
  • 3
    Medallas
  • 1
    Favoritos
  • 269
    Visitas
  • 6/10
    LPDLW score
  • 7
    Votantes
  • 57
    Puntos
  • 0
    Seguidores
  • 1
    Recomendado
Comentarios
11
Cargando comentarios espera un momento...

Para poder comentar necesitas ser un usuario registrado , ¡ Registrarme Ahora !. O.. ya tienes usuario? Logueate!
Creado por    vaquer
Ver perfil de vaquer vaquer
Hombre Supremo  Mensaje
5,124 62 556
Medallas ganadas por este Post
3
Punteadores
Tags
Posts relacionados
Mas Post de     vaquer
Términos y condiciones
Privacidad
Report - DMCA
Contacto
LoPeorDeLaWeb  © 2014 - 2016
Carga   0.433    Mls  
Basado en  PHPost 
Diseño de Kmario19
Adaptado por  jor51