Registrate para interactuar con MCORAQ

The Osiris Child (2016) Dual 1080p
Peliculas con audio Dual

The Osiris Child (2016) Dual 1080p



The Osiris Child (2016) Dual 1080p


The Osiris Child (2016) Dual 1080p



The Osiris Child (2016) Dual 1080p

TÍTULO ORIGINAL: The Osiris Child (2016)
AÑO: 2016
PAÍS: Australia
DURACIÓN: 99 min.
DIRECTOR: Shane Abbess
REPARTO: Kellan Lutz, Daniel MacPherson, Isabel Lucas, Luke Ford, Rachel Griffiths, Temuera Morrison

The Osiris Child (2016) Dual 1080p

The Osiris Child (2016) Dual 1080p
1080p | MKV | 3.3 GIGAS | Latino-Ingles 5.1 | 2014 |


MEDIA INFO

Complete name : F:\01-NEW\THE OSIRIS CHILD (2016) HD 1080P LATINO-INGLES\The Osiris Child (2016) Dual 1080p (1).mkv
Format : Matroska
Format version : Version 4 / Version 2
File size : 3.25 GiB
Duration : 1 h 39 min
Overall bit rate : 4 694 kb/s
Encoded date : UTC 2017-11-22 04:22:25
Writing application : mkvmerge v7.3.0 ('Nouages') 32bit built on Oct 22 2014 18:44:01
Writing library : libebml v1.3.0 + libmatroska v1.4.1

Video
ID : 1
Format : AVC
Format/Info : Advanced Video Codec
Format profile : [email protected]
Format settings, CABAC : Yes
Format settings, ReFrames : 2 frames
Codec ID : V_MPEG4/ISO/AVC
Duration : 1 h 39 min
Bit rate : 4 050 kb/s
Width : 1 920 pixels
Height : 1 080 pixels
Display aspect ratio : 16:9
Frame rate mode : Constant
Frame rate : 23.976 (24000/1001) FPS
Color space : YUV
Chroma subsampling : 4:2:0
Bit depth : 8 bits
Scan type : Progressive
Bits/(Pixel*Frame) : 0.081
Stream size : 2.80 GiB (86%)
Writing library : x264 core 142
Encoding settings : cabac=1 / ref=1 / deblock=1:-1:-1 / analyse=0x3:0 / me=hex / subme=5 / psy=0 / mixed_ref=0 / me_range=16 / chroma_me=1 / trellis=0 / 8x8dct=1 / cqm=0 / deadzone=21,11 / fast_pskip=0 / chroma_qp_offset=0 / threads=8 / lookahead_threads=2 / sliced_threads=0 / nr=0 / decimate=1 / interlaced=0 / bluray_compat=0 / constrained_intra=0 / bframes=2 / b_pyramid=0 / b_adapt=1 / b_bias=0 / direct=1 / weightb=0 / open_gop=0 / weightp=0 / keyint=24 / keyint_min=13 / scenecut=40 / intra_refresh=0 / rc=2pass / mbtree=0 / bitrate=4050 / ratetol=1.0 / qcomp=0.60 / qpmin=0 / qpmax=69 / qpstep=4 / cplxblur=20.0 / qblur=0.5 / ip_ratio=1.40 / pb_ratio=1.30 / aq=1:1.00
Default : Yes
Forced : No
Color range : Limited
Color primaries : BT.709
Transfer characteristics : BT.709
Matrix coefficients : BT.709

Audio #1
ID : 2
Format : AC-3
Format/Info : Audio Coding 3
Format settings, Endianness : Big
Codec ID : A_AC3
Duration : 1 h 38 min
Bit rate mode : Constant
Bit rate : 192 kb/s
Channel(s) : 2 channels
Channel positions : Front: L R
Sampling rate : 48.0 kHz
Frame rate : 31.250 FPS (1536 spf)
Bit depth : 16 bits
Compression mode : Lossy
Stream size : 136 MiB (4%)
Title : Latino
Language : Spanish
Service kind : Complete Main
Default : Yes
Forced : No

Audio #2
ID : 3
Format : AC-3
Format/Info : Audio Coding 3
Format settings, Endianness : Big
Codec ID : A_AC3
Duration : 1 h 39 min
Bit rate mode : Constant
Bit rate : 448 kb/s
Channel(s) : 6 channels
Channel positions : Front: L C R, Side: L R, LFE
Sampling rate : 48.0 kHz
Frame rate : 31.250 FPS (1536 spf)
Bit depth : 16 bits
Compression mode : Lossy
Stream size : 317 MiB (10%)
Title : Ingles
Language : English
Service kind : Complete Main
Default : No
Forced : No

Text #1
ID : 4
Format : UTF-8
Codec ID : S_TEXT/UTF8
Codec ID/Info : UTF-8 Plain Text
Duration : 1 h 33 min
Bit rate : 63 b/s
Count of elements : 1460
Stream size : 43.2 KiB (0%)
Title : Sub. Latino
Language : Spanish
Default : No
Forced : No

Text #2
ID : 5
Format : UTF-8
Codec ID : S_TEXT/UTF8
Codec ID/Info : UTF-8 Plain Text
Duration : 1 h 34 min
Bit rate : 53 b/s
Count of elements : 1282
Stream size : 37.0 KiB (0%)
Title : Sub. Ingles
Language : English
Default : No
Forced : No





The Osiris Child (2016) Dual 1080p

Situada en una época de colonización interplanetaria, Sy Lombrok, un vagabundo con un oscuro pasado, formará una extraña alianza con Kane Sommerville, un teniente que trabaja para el contratista militar Exor. En una lucha contrarreloj, tendrán que rescatar a la hija de Kane, Indi (Teagan Croft), en medio de una inminente crisis global causada por Exor..




The Osiris Child (2016) Dual 1080p

The Osiris Child (2016) Dual 1080p

The Osiris Child (2016) Dual 1080p

The Osiris Child (2016) Dual 1080p


The Osiris Child (2016) Dual 1080p

The Osiris Child (2016) Dual 1080p



Para poder ver los links necesitas estar Registrado .
O.. ya tienes cuenta? Logueate!


The Osiris Child (2016) Dual 1080p
www.lopeordelaweb.li


Muchísimas gracias por los links amiga
Moregoddess

The Osiris Child (2016) Dual 1080p

The Osiris Child (2016) Dual 1080p

Si lo que encontraste en este Post te sirvió , no te olvides de agradecérselo al Uploader ;
Tu comentario y agradecimiento es su única recompensa y estimulo para seguir compartiendo.
Estadísticas
Creado 22.11.2017 a las 11:16 hs
Categoría Peliculas con audio Dual
  • 3
    Medallas
  • 0
    Favoritos
  • 173
    Visitas
  • 6/10
    LPDLW score
  • 6
    Votantes
  • 60
    Puntos
  • 0
    Seguidores
  • 0
    Recomendado
Comentarios
21
Cargando comentarios espera un momento...

Para poder comentar necesitas ser un usuario registrado , ¡ Registrarme Ahora !. O.. ya tienes usuario? Logueate!
Creado por    MCORAQ
Ver perfil de MCORAQ MCORAQ
Hombre Diseño Grafico  Mensaje
10,383 93 1,066
Medallas ganadas por este Post
3
Últimos visitantes
Punteadores
Tags
Posts relacionados
Mas Post de     MCORAQ
Términos y condiciones
Privacidad
Report - DMCA
Contacto
LoPeorDeLaWeb  © 2014 - 2017
Carga   0.717    Mls  
Basado en  PHPost 
Diseño de Kmario19
Adaptado por  jor51