Registrate para interactuar con dolvion

El Golem (Der Golem, wie er in die Welt kam)? 1920 (muda)
Peliculas Subtituladas

El Golem (Der Golem, wie er in die Welt kam)? 1920 (muda)


El Golem (Der Golem, wie er in die Welt kam)? 1920 (muda)



El Golem (Der Golem, wie er in die Welt kam)? 1920 (muda)


El Golem (Der Golem, wie er in die Welt kam)? 1920 (muda)


Sinopsis

El Golem (Der Golem, wie er in die Welt kam)1? es una película muda alemana de 1920 dirigida por Carl Boese y Paul Wegener. Cuenta la historia de un Golem de arcilla hecho por un rabino de Praga. A pesar de que la novela homónima de Gustav Meyrink se suele citar como la fuente de la historia, ambas obras no tienen en común más que la presencia del Golem.

El Golem (Der Golem, 1920), de Paul Wegener, película basada en la novela homónima de Gustav Meyrink (1915), es una de las manifestaciones más sugerentes del cine fantástico y al mismo tiempo una obra maestra del llamado expresionismo alemán. Durante la segunda década del siglo XX surgió esta corriente, en concordancia con el movimiento pictórico del mismo nombre y de la misma época. El concepto principal que maneja el expresionismo es la introducción de otras parcelas artísticas dentro del cine, en particular en el diseño escenográfico, con un marcado sentido dramático en cuanto al uso de la luz, destacando el relieve y contorno de los objetos. Wegener expone en El Golem un desbordante escenario con decorados magnificados, de perspectivas imposibles, con texturas orgánicas, lo cual se convirtió en una seña de identidad de esta corriente tan intensa como breve.

La historia que nos narra esta cinta se ubica en Praga, alrededor de 1580. El gobernante de la ciudad decreta la expulsión de los judíos. Entonces, el rabino Loew -astrólogo y alquimista- crea un coloso de arcilla al que da vida mediante un conjuro, y lo convierte en su sirviente. Luego pide audiencia al emperador para solicitar la anulación del decreto; la audiencia es concedida y acude a ella en compañía de su creatura. Cuando el gobernante niega la petición, los muros de su palacio comienzan a derrumbarse, destrucción que se evita merced a la intervención del Golem, quien sostiene los muros. Como muestra de agradecimiento, el emperador cancela el decreto. Pero entonces el Golem parece tomar conciencia de su poder destructor, por lo que el rabino decide deshacerse de


El Golem (Der Golem, wie er in die Welt kam)? 1920 (muda)



Formato: MPEG-4
Tamaño : 598 MiB
Duracion : 1 h 24 min
Overall bit rate : 986 kb/s
Título: El Golem (Der Golem)
Dirección: Paul Wegener y Carl Boese
País: Alemania
Año: 1920
Duración: 85 min.
Genero:Horror

Video
ID : 1
Format : AVC
Format/Info : Advanced Video Codec
Format profile : [email protected]
Format settings : CABAC / 3 Ref Frames
Format settings, CABAC : Yes
Format settings, ReFrames : 3 frames
Codec ID : avc1
Codec ID/Info : Advanced Video Coding
Duration : 1 h 24 min
Bit rate : 857 kb/s
Width : 590 pixels
Height : 480 pixels
Display aspect ratio : 1.229
Frame rate mode : Constant
Frame rate : 25.000 FPS
Color space : YUV
Chroma subsampling : 4:2:0
Bit depth : 8 bits
Scan type : Progressive
Bits/(Pixel*Frame) : 0.121
Stream size : 520 MiB (87%)

Audio
ID : 2
Format : AAC
Format/Info : Advanced Audio Codec
Format profile : LC
Codec ID : mp4a-40-2
Duration : 1 h 24 min
Bit rate mode : Variable
Bit rate : 126 kb/s
Channel(s) : 2 channels
Channel positions : Front: L R
Sampling rate : 44.1 kHz
Frame rate : 43.066 FPS (1024 SPF)
Compression mode : Lossy
Stream size : 76.2 MiB (13%)



El Golem (Der Golem, wie er in die Welt kam)? 1920 (muda)
El Golem (Der Golem, wie er in die Welt kam)? 1920 (muda)

El Golem (Der Golem, wie er in die Welt kam)? 1920 (muda)

El Golem (Der Golem, wie er in die Welt kam)? 1920 (muda)

El Golem (Der Golem, wie er in die Welt kam)? 1920 (muda)

El Golem (Der Golem, wie er in die Welt kam)? 1920 (muda)

El Golem (Der Golem, wie er in die Welt kam)? 1920 (muda)



Para poder ver los links necesitas estar Registrado .
O.. ya tienes cuenta? Logueate!







El Golem (Der Golem, wie er in die Welt kam)? 1920 (muda)

dkghsdkjfghklsdfhgklsfjgh


El Golem (Der Golem, wie er in die Welt kam)? 1920 (muda)

!!!!!!!! LO QUE NO SE COMPARTE SE EPIERDE....................!!!!!!!!!
Si lo que encontraste en este Post te sirvió , no te olvides de agradecérselo al Uploader ;
Tu comentario y agradecimiento es su única recompensa y estimulo para seguir compartiendo.
Estadísticas
Creado 10.04.2018 a las 18:36 hs
Categoría Peliculas Subtituladas
  • 1
    Medallas
  • 1
    Favoritos
  • 55
    Visitas
  • 8.5/10
    LPDLW score
  • 9
    Votantes
  • 83
    Puntos
  • 0
    Seguidores
  • 0
    Recomendado
Comentarios
13
Cargando comentarios espera un momento...

Para poder comentar necesitas ser un usuario registrado , ¡ Registrarme Ahora !. O.. ya tienes usuario? Logueate!
Creado por    dolvion
Ver perfil de dolvion dolvion
Hombre Full User  Mensaje
656 17 8
Medallas ganadas por este Post
1
Últimos visitantes
Punteadores
Tags
Posts relacionados
Mas Post de     dolvion
Términos y condiciones
Privacidad
Report - DMCA
Contacto
LoPeorDeLaWeb  © 2014 - 2018
Carga   2.871    Mls  
Basado en  PHPost 
Diseño de Kmario19
Adaptado por  jor51