Registrate para interactuar con Saga

Seven (7 Pecados capitales)|1995|Dual-720p
Peliculas con audio Dual


Seven (7 Pecados capitales)|1995|Dual-720p

Ahora una película cuando la vi la encontré muy buena,como siempre me llama la atención esto de los asesinos en serie, esta película  no me defraudo.
recomendada y nos leemos en el próximo post.



Seven (7 Pecados capitales)|1995|Dual-720p

Seven (7 Pecados capitales)|1995|Dual-720p


Seven (7 Pecados capitales)|1995|Dual-720p

El veterano teniente Somerset (Morgan Freeman), del departamento de homicidios, está a punto de jubilarse y ser reemplazado por el ambicioso e impulsivo detective David Mills (Brad Pitt). Ambos tendrán que colaborar en la resolución de una serie de asesinatos cometidos por un psicópata que toma como base la relación de los siete pecados capitales: gula, pereza, soberbia, avaricia, envidia, lujuria e ira. Los cuerpos de las víctimas, sobre los que el asesino se ensaña de manera impúdica, se convertirán para los policías en un enigma que les obligará a viajar al horror y la barbarie más absoluta.



Seven (7 Pecados capitales)|1995|Dual-720p


Título original: Seven (Se7en)
Año: 1995
Duración: 127 min.
País: Estados Unidos 
Director: David Fincher
Guión: Andrew Kevin Walker
Música:Howard Shore
Fotografía: Darius Khondji
Reparto:Brad Pitt, Morgan Freeman, Gwyneth Paltrow, Kevin Spacey, John C. McGinley, Richard Roundtree, R. Lee Ermey, Leland Orser, Richard Schiff, Julie Araskog, Mark Boone Junior, Daniel Zacapa, Richard Portnow, Bob Stephenson, John Cassini, Lennie Loftin, Reg E. Cathey
Productora:New Line Cinema / Arnold Kopelson Production
Género:Thriller. Intriga | Crimen. Policíaco. Asesinos en serie. Película de culto. Neo-noir

Idioma: Inglés y Español Latino
Subtítulos: Español
Duración: 126min
Resolución: 1280×530
Formato: mkv
Peso: 2.9 GB
Servidor: Mega
Contraseña: saga/LoPeorDeLaWeb.li


Format : Matroska
Format version : Version 4 / Version 2
File size : 2.90 GiB
Duration : 2h 6mn
Overall bit rate : 3 273 Kbps
Movie name : Seven
Encoded date : UTC 2015-07-14 01:31:40
Writing application : mkvmerge v7.2.0 ('On Every Street') 32bit built on Sep 13 2014 15:42:11
Writing library : libebml v1.3.0 + libmatroska v1.4.1
Attachements : cover.jpg
DURATION : 02:01:57.794000000
NUMBER_OF_FRAMES : 1510
NUMBER_OF_BYTES : 48626
_STATISTICS_WRITING_APP : mkvmerge v7.2.0 ('On Every Street') 32bit built on Sep 13 2014 15:42:11
_STATISTICS_WRITING_DATE_UTC : 2015-07-14 01:31:40
_STATISTICS_TAGS : BPS DURATION NUMBER_OF_FRAMES NUMBER_OF_BYTES

Video
ID : 1
Format : AVC
Format/Info : Advanced Video Codec
Format profile : [email protected]
Format settings, CABAC : Yes
Format settings, ReFrames : 5 frames
Codec ID : V_MPEG4/ISO/AVC
Duration : 2h 6mn
Bit rate : 2 568 Kbps
Width : 1 280 pixels
Height : 536 pixels
Display aspect ratio : 2.40:1
Frame rate mode : Constant
Frame rate : 23.976 fps
Color space : YUV
Chroma subsampling : 4:2:0
Bit depth : 8 bits
Scan type : Progressive
Bits/(Pixel*Frame) : 0.156
Stream size : 2.27 GiB (78%)
Title : Seven
Writing library : x264 core 88 r1471 1144615
Encoding settings : cabac=1 / ref=5 / deblock=1:-3:-3 / analyse=0x3:0x133 / me=umh / subme=8 / psy=1 / psy_rd=1.00:0.00 / mixed_ref=1 / me_range=32 / chroma_me=1 / trellis=2 / 8x8dct=1 / cqm=2 / deadzone=21,11 / fast_pskip=0 / chroma_qp_offset=-2 / threads=6 / sliced_threads=0 / nr=0 / decimate=1 / mbaff=0 / constrained_intra=0 / bframes=3 / b_pyramid=2 / b_adapt=1 / b_bias=0 / direct=1 / wpredb=1 / wpredp=2 / keyint=250 / keyint_min=25 / scenecut=40 / intra_refresh=0 / rc_lookahead=40 / rc=crf / mbtree=1 / crf=21.5 / qcomp=0.60 / qpmin=10 / qpmax=51 / qpstep=4 / ip_ratio=1.40 / aq=1:1.00
Language : English
Default : Yes
Forced : No
DURATION : 02:06:46.695000000
NUMBER_OF_FRAMES : 182378
NUMBER_OF_BYTES : 2501488571
_STATISTICS_WRITING_APP : mkvmerge v7.2.0 ('On Every Street') 32bit built on Sep 13 2014 15:42:11
_STATISTICS_WRITING_DATE_UTC : 2015-07-14 01:31:40
_STATISTICS_TAGS : BPS DURATION NUMBER_OF_FRAMES NUMBER_OF_BYTES

Audio #1
ID : 2
Format : AC-3
Format/Info : Audio Coding 3
Mode extension : CM (complete main)
Format settings, Endianness : Big
Codec ID : A_AC3
Duration : 2h 6mn
Bit rate mode : Constant
Bit rate : 192 Kbps
Channel(s) : 2 channels
Channel positions : Front: L R
Sampling rate : 48.0 KHz
Bit depth : 16 bits
Compression mode : Lossy
Delay relative to video : 1s 100ms
Stream size : 174 MiB (6%)
Title : Español Latino
Language : Spanish
Default : No
Forced : No

Audio #2
ID : 3
Format : AC-3
Format/Info : Audio Coding 3
Mode extension : CM (complete main)
Format settings, Endianness : Big
Codec ID : A_AC3
Duration : 2h 6mn
Bit rate mode : Constant
Bit rate : 448 Kbps
Channel(s) : 6 channels
Channel positions : Front: L C R, Side: L R, LFE
Sampling rate : 48.0 KHz
Bit depth : 16 bits
Compression mode : Lossy
Stream size : 406 MiB (14%)
Title : Inglés
Language : English
Default : Yes
Forced : Yes

Text
ID : 4
Format : UTF-8
Codec ID : S_TEXT/UTF8
Codec ID/Info : UTF-8 Plain Text
Title : Español Latino
Default : Yes
Forced : Yes



Seven (7 Pecados capitales)|1995|Dual-720p

Seven (7 Pecados capitales)|1995|Dual-720p

Para poder ver los links necesitas estar Registrado .
O.. ya tienes cuenta? Logueate!


Seven (7 Pecados capitales)|1995|Dual-720p
Seven (7 Pecados capitales)|1995|Dual-720p

Si lo que encontraste en este Post te sirvió , no te olvides de agradecérselo al Uploader ;
Tu comentario y agradecimiento es su única recompensa y estimulo para seguir compartiendo.
Estadísticas
Creado 17.07.2015 a las 12:14 hs
Categoría Peliculas con audio Dual
  • 7
    Medallas
  • 2
    Favoritos
  • 907
    Visitas
  • 10/10
    LPDLW score
  • 13
    Votantes
  • 110
    Puntos
  • 0
    Seguidores
  • 0
    Recomendado
Comentarios
76
Cargando comentarios espera un momento...

Para poder comentar necesitas ser un usuario registrado , ¡ Registrarme Ahora !. O.. ya tienes usuario? Logueate!
Creado por    Saga
Ver perfil de Saga Saga
Hombre Pirata  Mensaje
14,648 161 657
Medallas ganadas por este Post
7
Punteadores
Tags
Posts relacionados
Mas Post de     Saga
Términos y condiciones
Privacidad
Report - DMCA
Contacto
LoPeorDeLaWeb  © 2014 - 2016
Carga   0.376    Mls  
Basado en  PHPost 
Diseño de Kmario19
Adaptado por  jor51