Registrate para interactuar con MCORAQ

Interstellar (2014) 1080p
Peliculas con audio Dual

Interstellar (2014) 1080p




Interstellar (2014) 1080p


Interstellar (2014) 1080p



Interstellar (2014) 1080p

TÍTULO ORIGINAL: Interstellar
OTROS TÍTULOS: Interestelar
AÑO: 2014
PAÍS: Estados Unidos
DURACIÓN: 169 min.
DIRECTOR: Christopher Nolan
REPARTO: Matthew McConaughey, Anne Hathaway, David Gyasi, Jessica Chastain, Mackenzie Foy, Matt Damon, Michael Caine, John Lithgow, Casey
Affleck, Timothée Chalamet, Wes Bentley, Ellen Burstyn, Topher Grace,
David Oyelowo, Collette Wolfe, Leah Cairns, Elyes Gabel
GUIÓN: Jonathan Nolan, Christopher Nolan (Historia: Kip Thorne)
MÚSICA: Hans Zimmer
FOTOGRAFÍA: Hoyte van Hoytema
PRODUCTORA: Warner Bros. / Syncopy / Paramount Pictures / Legendary Pictures / Lynda Obst Productions
GÉNERO: Ciencia ficción. Drama. Aventuras | Aventura espacial. Futuro postapocalíptico. Viajes en el tiempo
PREMIOS
2014: Oscar: Mejores efectos visuales. 5 nominaciones incl. mejor banda sonora
2014: Globos de Oro: Nominada a Mejor banda sonora original
2014: Premios BAFTA: Mejores efectos especiales visuales
2014: American Film Institute (AFI): Top 10 – Mejores películas del año
2014: Satellite Awards: 3 nominaciones incluyendo Mejor fotografía
2014: Critics Choice Awards: Mejor película de ciencia ficción
2014: Críticos de Chicago: 4 nominaciones incluyendo Mejor director
FECHA DE ESTRENO USA: 26 October 2014
FECHA DE ESTRENO ARGENTINA: 4 November 2014
FECHA DE ESTRENO MÉXICO: 6 November 2014
FECHA DE ESTRENO ESPAÑA: 7 November 2014

Interstellar (2014) 1080p

Interstellar (2014) 1080p
Full HD BRRip 1080p | MKV | 4.4 GIGAS | Latino-Ingles 5.1 | Ciencia Ficción | 2014 |


Informacion Detallada De La Película En El Spoiler


Complete name : Interestelar (2014) Full HD BRRip 1080p Audio Dual LatinoIngles 5.1\Interestelar (2014) Full HD-LPDLW.mkv
Format : Matroska
Format version : Version 4 / Version 2
File size : 4.43 GiB
Duration : 2h 50mn
Overall bit rate : 3 712 Kbps
Movie name : Interstellar (2014) Full HD 1080p Dual - www.lopeordelaweb.li
Encoded date : UTC 2015-03-20 00:44:25
Writing application : mkvmerge v7.3.0 ('Nouages') 32bit built on Oct 22 2014 18:44:01
Writing library : libebml v1.3.0 + libmatroska v1.4.1
_STATISTICS_WRITING_APP : mkvmerge v7.3.0 ('Nouages') 32bit built on Oct 22 2014 18:44:01
_STATISTICS_WRITING_DATE_UTC : 2015-03-20 00:44:25
_STATISTICS_TAGS : BPS DURATION NUMBER_OF_FRAMES NUMBER_OF_BYTES
DURATION : 02:42:27.321000000
NUMBER_OF_FRAMES : 2000
NUMBER_OF_BYTES : 68996

Video
ID : 1
Format : AVC
Format/Info : Advanced Video Codec
Format profile : [email protected]
Format settings, CABAC : Yes
Format settings, ReFrames : 4 frames
Codec ID : V_MPEG4/ISO/AVC
Duration : 2h 50mn
Bit rate : 2 850 Kbps
Width : 1 920 pixels
Height : 1 080 pixels
Display aspect ratio : 16:9
Frame rate mode : Constant
Frame rate : 23.976 fps
Color space : YUV
Chroma subsampling : 4:2:0
Bit depth : 8 bits
Scan type : Progressive
Bits/(Pixel*Frame) : 0.057
Stream size : 3.27 GiB (74%)
Title : Video-[www.LoPeorDeLaWeb.li]
Writing library : x264 core 146 r2538 121396c
Encoding settings : cabac=1 / ref=3 / deblock=1:-1:-1 / analyse=0x3:0x113 / me=hex / subme=7 / psy=1 / psy_rd=1.00:0.15 / mixed_ref=1 / me_range=16 / chroma_me=1 / trellis=1 / 8x8dct=1 / cqm=0 / deadzone=21,11 / fast_pskip=1 / chroma_qp_offset=-3 / threads=12 / lookahead_threads=2 / sliced_threads=0 / nr=0 / decimate=1 / interlaced=0 / bluray_compat=0 / constrained_intra=0 / bframes=3 / b_pyramid=2 / b_adapt=1 / b_bias=0 / direct=1 / weightb=1 / open_gop=0 / weightp=2 / keyint=240 / keyint_min=23 / scenecut=40 / intra_refresh=0 / rc_lookahead=40 / rc=2pass / mbtree=1 / bitrate=2850 / ratetol=1.0 / qcomp=0.60 / qpmin=0 / qpmax=69 / qpstep=4 / cplxblur=20.0 / qblur=0.5 / vbv_maxrate=62500 / vbv_bufsize=78125 / nal_hrd=none / filler=0 / ip_ratio=1.40 / aq=1:1.00
Language : English
Default : Yes
Forced : No

Audio #1
ID : 2
Format : AC-3
Format/Info : Audio Coding 3
Mode extension : CM (complete main)
Format settings, Endianness : Big
Codec ID : A_AC3
Duration : 2h 50mn
Bit rate mode : Constant
Bit rate : 448 Kbps
Channel(s) : 6 channels
Channel positions : Front: L C R, Side: L R, LFE
Sampling rate : 48.0 KHz
Bit depth : 16 bits
Compression mode : Lossy
Stream size : 547 MiB (12%)
Title : Español Latino [www.LoPeorDeLaWeb.li]
Language : Spanish
Default : Yes
Forced : No

Audio #2
ID : 3
Format : AC-3
Format/Info : Audio Coding 3
Mode extension : CM (complete main)
Format settings, Endianness : Big
Codec ID : A_AC3
Duration : 2h 50mn
Bit rate mode : Constant
Bit rate : 448 Kbps
Channel(s) : 6 channels
Channel positions : Front: L C R, Side: L R, LFE
Sampling rate : 48.0 KHz
Bit depth : 16 bits
Compression mode : Lossy
Stream size : 547 MiB (12%)
Title : Audio Inglés [www.LoPeorDeLaWeb.li]
Language : English
Default : No
Forced : No

Text #1
ID : 4
Format : UTF-8
Codec ID : S_TEXT/UTF8
Codec ID/Info : UTF-8 Plain Text
Title : www.LoPeorDeLaWeb.li
Default : Yes
Forced : No

Text #2
ID : 5
Format : UTF-8
Codec ID : S_TEXT/UTF8
Codec ID/Info : UTF-8 Plain Text
Title : Subtitlos Español [www.LoPeorDeLaWeb.li]
Language : Spanish
Default : No
Forced : No

Text #3
ID : 6
Format : UTF-8
Codec ID : S_TEXT/UTF8
Codec ID/Info : UTF-8 Plain Text
Title : Subtitlos Inglés [www.LoPeorDeLaWeb.li]
Language : English
Default : No
Forced : No




Interstellar (2014) 1080p

Al ver que la vida en la Tierra está llegando a su fin, un grupo de exploradores liderados por el piloto Cooper (McConaughey) y la científica Amelia (Hathaway) se embarca en la que puede ser la misión más importante de la historia de la humanidad y emprenden un viaje más allá de nuestra galaxia en el que descubrirán si las estrellas pueden albergar el futuro de la raza humana.




Interstellar (2014) 1080p

Interstellar (2014) 1080p

Interstellar (2014) 1080p


Interstellar (2014) 1080p

Interstellar (2014) 1080p


Parte 01
Para poder ver los links necesitas estar Registrado .
O.. ya tienes cuenta? Logueate!


Parte 02
Para poder ver los links necesitas estar Registrado .
O.. ya tienes cuenta? Logueate!


Parte 03
Para poder ver los links necesitas estar Registrado .
O.. ya tienes cuenta? Logueate!


Parte 04
Para poder ver los links necesitas estar Registrado .
O.. ya tienes cuenta? Logueate!


Parte 05
Para poder ver los links necesitas estar Registrado .
O.. ya tienes cuenta? Logueate!


Parte 06
Para poder ver los links necesitas estar Registrado .
O.. ya tienes cuenta? Logueate!


Parte 07
Para poder ver los links necesitas estar Registrado .
O.. ya tienes cuenta? Logueate!


Parte 08
Para poder ver los links necesitas estar Registrado .
O.. ya tienes cuenta? Logueate!


Parte 09
Para poder ver los links necesitas estar Registrado .
O.. ya tienes cuenta? Logueate!


Parte 10
Para poder ver los links necesitas estar Registrado .
O.. ya tienes cuenta? Logueate!


Interstellar (2014) 1080p
www.lopeordelaweb.li


Interstellar (2014) 1080p

Si lo que encontraste en este Post te sirvió , no te olvides de agradecérselo al Uploader ;
Tu comentario y agradecimiento es su única recompensa y estimulo para seguir compartiendo.
Estadísticas
Creado 21.03.2015 a las 11:02 hs
Categoría Peliculas con audio Dual
  • 5
    Medallas
  • 1
    Favoritos
  • 336
    Visitas
  • 10/10
    LPDLW score
  • 12
    Votantes
  • 110
    Puntos
  • 0
    Seguidores
  • 1
    Recomendado
Comentarios
24
Cargando comentarios espera un momento...

Para poder comentar necesitas ser un usuario registrado , ¡ Registrarme Ahora !. O.. ya tienes usuario? Logueate!
Creado por    MCORAQ
Ver perfil de MCORAQ MCORAQ
Hombre Diseño Grafico  Mensaje
8,948 75 936
Medallas ganadas por este Post
5
Punteadores
Tags
Posts relacionados
Mas Post de     MCORAQ
Términos y condiciones
Privacidad
Report - DMCA
Contacto
LoPeorDeLaWeb  © 2014 - 2017
Carga   2.056    Mls  
Basado en  PHPost 
Diseño de Kmario19
Adaptado por  jor51