Registrate para interactuar con celciusb

Dragon Ball Super | Actualizable
Manga y Anime

Dragon Ball Super
Actualizable 720p MP4 / HD Ligero MP4


Episodios 720p MP4: 008/100 | Episodios 720p ligero MP4: 008/100
Última actualización: 05 de Septiembre 2015


Gokú y sus amigos vuelven con una nueva historia

Dragon Ball Super | Actualizable

Dragon Ball Super | Actualizable
18 años después del final de La batalla contra Majin Buu, ya está en fase de producción Dragon Ball Super, una nueva serie de animación que continuará con las aventuras de Gokú y demás personajes de la franquicia. Según publica la página oficial, Toei Animation ha anunciado lo que será la nueva saga "Dragon Ball Super", un nuevo anime de Dragon Ball que se estrenará en julio del 2015. De acuerdo a la web, se trata de un proyecto original, secuela de Dragon Ball Z, de manos de Akira Toriyama, autor del manga de Dragon Ball. El anime se emitirá cada domingo desde el 05 de julio de 2015, a las 9 de la mañana a través del canal Fuji TV, entre otros.

Después de la última película que fue "Dragon Ball Z: La resurrección de Freezer", dirigida por Tadayoshi Yamamuro y que se ha estrenado el 18 de abril de 2015 en Japón. Osamu Nozaki, productor de Fuji TV, ha añadido que: “A medida que leía el guion que ya me había pasado Akira Toriyama, mis sueños con el proyecto comenzaron a expandirse. Un enemigo incluso más fuerte que Buu o Freezer puede aparecer.”


Dragon Ball Super | Actualizable
Dragon Ball Super | Actualizable
Dragon Ball Super | Actualizable
Dragon Ball Super | Actualizable
Dragon Ball Super | Actualizable
Dragon Ball Super | Actualizable
Dragon Ball Super | Actualizable
Dragon Ball Super | Actualizable
Dragon Ball Super | Actualizable
Dragon Ball Super | Actualizable
Dragon Ball Super | Actualizable
Dragon Ball Super | Actualizable
Dragon Ball Super | Actualizable
Dragon Ball Super | Actualizable
Dragon Ball Super | Actualizable
Dragon Ball Super | Actualizable
Dragon Ball Super | Actualizable


Dragon Ball Super | Actualizable


Dragon Ball Super | Actualizable
Dragon Ball Super | Actualizable

¡Disfruta de todos los episodios Online!


Dragon Ball Super | Actualizable
Dragon Ball Super 720p

Audio: Japonés | 270 ~ 320 MB | Subtítulos: Español | Fansub: Wing-Zero | Karaoke: Si

General
Format : MPEG-4
Format profile : Base Media
Codec ID : isom
File size : 286 MiB
Duration : 23mn 24s
Overall bit rate mode : Variable
Overall bit rate : 1 706 Kbps
Encoded date : UTC 2015-07-05 03:11:15
Tagged date : UTC 2015-07-05 03:11:15
Writing application : Yamb 2.1.0.0 [http://yamb.unite-video.com]

Video
ID : 1
Format : AVC
Format/Info : Advanced Video Codec
Format profile : [email protected]
Format settings, CABAC : Yes
Format settings, ReFrames : 4 frames
Codec ID : avc1
Codec ID/Info : Advanced Video Coding
Duration : 23mn 24s
Bit rate : 1 491 Kbps
Maximum bit rate : 8 750 Kbps
Width : 1 280 pixels
Height : 720 pixels
Display aspect ratio : 16:9
Frame rate mode : Constant
Frame rate : 23.976 fps
Color space : YUV
Chroma subsampling : 4:2:0
Bit depth : 8 bits
Scan type : Progressive
Bits/(Pixel*Frame) : 0.067
Stream size : 250 MiB (87%)
Writing library : x264 core 146 r2538 121396c
Encoding settings : cabac=1 / ref=3 / deblock=1:0:0 / analyse=0x3:0x113 / me=hex / subme=7 / psy=1 / psy_rd=1.00:0.00 / mixed_ref=1 / me_range=16 / chroma_me=1 / trellis=1 / 8x8dct=1 / cqm=0 / deadzone=21,11 / fast_pskip=1 / chroma_qp_offset=-2 / threads=12 / lookahead_threads=2 / sliced_threads=0 / nr=0 / decimate=1 / interlaced=0 / bluray_compat=0 / constrained_intra=0 / bframes=3 / b_pyramid=2 / b_adapt=1 / b_bias=0 / direct=1 / weightb=1 / open_gop=0 / weightp=2 / keyint=240 / keyint_min=23 / scenecut=40 / intra_refresh=0 / rc_lookahead=40 / rc=2pass / mbtree=1 / bitrate=1491 / ratetol=1.0 / qcomp=0.60 / qpmin=10 / qpmax=51 / qpstep=4 / cplxblur=20.0 / qblur=0.5 / ip_ratio=1.40 / aq=1:1.00
Encoded date : UTC 2015-07-06 03:07:05
Tagged date : UTC 2015-07-05 03:11:39

Audio
ID : 2
Format : AAC
Format/Info : Advanced Audio Codec
Format profile : LC
Codec ID : 40
Duration : 23mn 24s
Bit rate mode : Variable
Bit rate : 211 Kbps
Maximum bit rate : 258 Kbps
Channel(s) : 2 channels
Channel positions : Front: L R
Sampling rate : 48.0 KHz
Compression mode : Lossy
Stream size : 35.4 MiB (12%)
Encoded date : UTC 2015-07-05 03:11:15
Tagged date : UTC 2015-07-05 03:11:39




Dragon Ball Super HD Lite

Audio: Japonés | 95 ~ 100 MB | Subtítulos: Español | Fansub: Wing-Zero | Karaoke: Si

General
Format : MPEG-4
Format profile : Base Media
Codec ID : isom
File size : 96.7 MiB
Duration : 23mn 24s
Overall bit rate mode : Variable
Overall bit rate : 577 Kbps
Encoded date : UTC 2015-07-07 21:27:12
Tagged date : UTC 2015-07-07 21:27:12

Video
ID : 1
Format : AVC
Format/Info : Advanced Video Codec
Format profile : [email protected]
Format settings, CABAC : Yes
Format settings, ReFrames : 8 frames
Codec ID : avc1
Codec ID/Info : Advanced Video Coding
Duration : 23mn 24s
Bit rate : 510 Kbps
Maximum bit rate : 3 058 Kbps
Width : 1 280 pixels
Height : 720 pixels
Display aspect ratio : 16:9
Frame rate mode : Constant
Frame rate : 23.976 fps
Color space : YUV
Chroma subsampling : 4:2:0
Bit depth : 8 bits
Scan type : Progressive
Bits/(Pixel*Frame) : 0.023
Stream size : 85.4 MiB (88%)
Writing library : x264 core 146 r2538 121396c
Encoding settings : cabac=1 / ref=8 / deblock=1:-1:-1 / analyse=0x3:0x133 / me=umh / subme=9 / psy=1 / psy_rd=1.00:0.00 / mixed_ref=1 / me_range=16 / chroma_me=1 / trellis=2 / 8x8dct=1 / cqm=0 / deadzone=21,11 / fast_pskip=1 / chroma_qp_offset=-2 / threads=6 / lookahead_threads=1 / sliced_threads=0 / nr=0 / decimate=1 / interlaced=0 / bluray_compat=0 / constrained_intra=0 / bframes=3 / b_pyramid=2 / b_adapt=2 / b_bias=0 / direct=3 / weightb=1 / open_gop=0 / weightp=2 / keyint=240 / keyint_min=23 / scenecut=40 / intra_refresh=0 / rc_lookahead=60 / rc=2pass / mbtree=1 / bitrate=510 / ratetol=1.0 / qcomp=0.60 / qpmin=10 / qpmax=51 / qpstep=4 / cplxblur=20.0 / qblur=0.5 / vbv_maxrate=50000 / vbv_bufsize=50000 / nal_hrd=none / filler=0 / ip_ratio=1.40 / aq=1:1.00
Encoded date : UTC 2015-07-07 21:27:12
Tagged date : UTC 2015-07-07 21:27:13

Audio
ID : 2
Format : AAC
Format/Info : Advanced Audio Codec
Format profile : HE-AAC / LC
Codec ID : 40
Duration : 23mn 24s
Bit rate mode : Variable
Bit rate : 64.0 Kbps
Maximum bit rate : 76.0 Kbps
Channel(s) : 2 channels
Channel positions : Front: L R
Sampling rate : 48.0 KHz / 24.0 KHz
Compression mode : Lossy
Stream size : 10.7 MiB (11%)
Encoded date : UTC 2015-07-07 20:53:25
Tagged date : UTC 2015-07-07 21:27:13



Dragon Ball Super | Actualizable
¿Que te ha parecido este Anime?


Dragon Ball Super | Actualizable
Calidad 720p MP4

Dragon Ball Super | Actualizable

Ezfile
Mediafire


Solidfiles
Userscloud



Otros enlaces




Dragon Ball Super | Actualizable
Para poder ver los links necesitas estar Registrado .
O.. ya tienes cuenta? Logueate!


Dragon Ball Super | Actualizable
Para poder ver los links necesitas estar Registrado .
O.. ya tienes cuenta? Logueate!



Dragon Ball Super | Actualizable

Ezfile
Mediafire


Solidfiles
Userscloud



Otros enlaces




Dragon Ball Super | Actualizable
Para poder ver los links necesitas estar Registrado .
O.. ya tienes cuenta? Logueate!


Dragon Ball Super | Actualizable
Para poder ver los links necesitas estar Registrado .
O.. ya tienes cuenta? Logueate!



Dragon Ball Super | Actualizable

Ezfile
Mediafire


Solidfiles
Userscloud



Otros enlaces




Dragon Ball Super | Actualizable
Para poder ver los links necesitas estar Registrado .
O.. ya tienes cuenta? Logueate!


Dragon Ball Super | Actualizable
Para poder ver los links necesitas estar Registrado .
O.. ya tienes cuenta? Logueate!



Dragon Ball Super | Actualizable

Ezfile
Mediafire


Solidfiles
Userscloud



Otros enlaces




Dragon Ball Super | Actualizable
Para poder ver los links necesitas estar Registrado .
O.. ya tienes cuenta? Logueate!


Dragon Ball Super | Actualizable
Para poder ver los links necesitas estar Registrado .
O.. ya tienes cuenta? Logueate!



Dragon Ball Super | Actualizable

Mediafire


Solidfiles
Userscloud



Otros enlaces




Dragon Ball Super | Actualizable
Para poder ver los links necesitas estar Registrado .
O.. ya tienes cuenta? Logueate!


Dragon Ball Super | Actualizable
Para poder ver los links necesitas estar Registrado .
O.. ya tienes cuenta? Logueate!



Dragon Ball Super | Actualizable

Ezfile
Mediafire


Solidfiles
Userscloud



Otros enlaces




Dragon Ball Super | Actualizable
Para poder ver los links necesitas estar Registrado .
O.. ya tienes cuenta? Logueate!


Dragon Ball Super | Actualizable
Para poder ver los links necesitas estar Registrado .
O.. ya tienes cuenta? Logueate!



Dragon Ball Super | Actualizable
Ezfile
Mediafire


Solidfiles
Userscloud



Otros enlaces




Dragon Ball Super | Actualizable
Para poder ver los links necesitas estar Registrado .
O.. ya tienes cuenta? Logueate!


Dragon Ball Super | Actualizable
Para poder ver los links necesitas estar Registrado .
O.. ya tienes cuenta? Logueate!



Dragon Ball Super | Actualizable

Ezfile
Mediafire


Solidfiles
Userscloud



Otros enlaces




Dragon Ball Super | Actualizable
Para poder ver los links necesitas estar Registrado .
O.. ya tienes cuenta? Logueate!


Dragon Ball Super | Actualizable
Para poder ver los links necesitas estar Registrado .
O.. ya tienes cuenta? Logueate!




Calidad HD Ligero MP4

Dragon Ball Super | Actualizable

Ezfile
Mediafire


Solidfiles
Userscloud


Zippyshare



Otros enlaces




Dragon Ball Super | Actualizable
Para poder ver los links necesitas estar Registrado .
O.. ya tienes cuenta? Logueate!


Dragon Ball Super | Actualizable
Para poder ver los links necesitas estar Registrado .
O.. ya tienes cuenta? Logueate!



Dragon Ball Super | Actualizable

Ezfile
Mediafire


Solidfiles
Userscloud


Zippyshare



Otros enlaces




Dragon Ball Super | Actualizable
Para poder ver los links necesitas estar Registrado .
O.. ya tienes cuenta? Logueate!


Dragon Ball Super | Actualizable
Para poder ver los links necesitas estar Registrado .
O.. ya tienes cuenta? Logueate!



Dragon Ball Super | Actualizable

Ezfile
Mediafire


Solidfiles
Userscloud


Zippyshare



Otros enlaces




Dragon Ball Super | Actualizable
Para poder ver los links necesitas estar Registrado .
O.. ya tienes cuenta? Logueate!


Dragon Ball Super | Actualizable
Para poder ver los links necesitas estar Registrado .
O.. ya tienes cuenta? Logueate!



Dragon Ball Super | Actualizable

Ezfile
Mediafire


Solidfiles
Userscloud


Zippyshare



Otros enlaces




Dragon Ball Super | Actualizable
Para poder ver los links necesitas estar Registrado .
O.. ya tienes cuenta? Logueate!


Dragon Ball Super | Actualizable
Para poder ver los links necesitas estar Registrado .
O.. ya tienes cuenta? Logueate!



Dragon Ball Super | Actualizable

Ezfile
Mediafire


Solidfiles
Userscloud


Zippyshare



Otros enlaces




Dragon Ball Super | Actualizable
Para poder ver los links necesitas estar Registrado .
O.. ya tienes cuenta? Logueate!


Dragon Ball Super | Actualizable
Para poder ver los links necesitas estar Registrado .
O.. ya tienes cuenta? Logueate!



Dragon Ball Super | Actualizable

Mediafire


Solidfiles
Userscloud


Zippyshare



Otros enlaces




Dragon Ball Super | Actualizable
Para poder ver los links necesitas estar Registrado .
O.. ya tienes cuenta? Logueate!


Dragon Ball Super | Actualizable
Para poder ver los links necesitas estar Registrado .
O.. ya tienes cuenta? Logueate!



Dragon Ball Super | Actualizable

Ezfile
Mediafire


Solidfiles
Userscloud


Zippyshare



Otros enlaces




Dragon Ball Super | Actualizable
Para poder ver los links necesitas estar Registrado .
O.. ya tienes cuenta? Logueate!


Dragon Ball Super | Actualizable
Para poder ver los links necesitas estar Registrado .
O.. ya tienes cuenta? Logueate!



Dragon Ball Super | Actualizable

Ezfile
Mediafire


Solidfiles
Userscloud


Zippyshare



Otros enlaces




Dragon Ball Super | Actualizable
Para poder ver los links necesitas estar Registrado .
O.. ya tienes cuenta? Logueate!


Dragon Ball Super | Actualizable
Para poder ver los links necesitas estar Registrado .
O.. ya tienes cuenta? Logueate!




Dragon Ball Super | Actualizable
Si deseas descargar desde Mega o 4Shared
puedes utilizar MiPony Portable

Descargar MiPony Portable



Dragon Ball Super | Actualizable

Dragon Ball Super | Actualizable
Sin contraseña


Dragon Ball Super | Actualizable

Gracias por visitar mi post Visitante, espero que el material sea de tu agrado.

Si lo que encontraste en este Post te sirvió , no te olvides de agradecérselo al Uploader ;
Tu comentario y agradecimiento es su única recompensa y estimulo para seguir compartiendo.
Estadísticas
Creado 14.07.2015 a las 01:04 hs
Categoría Manga y Anime
  • 4
    Medallas
  • 1
    Favoritos
  • 940
    Visitas
  • 9/10
    LPDLW score
  • 9
    Votantes
  • 87
    Puntos
  • 1
    Seguidores
  • 0
    Recomendado
Comentarios
12
Cargando comentarios espera un momento...

Para poder comentar necesitas ser un usuario registrado , ¡ Registrarme Ahora !. O.. ya tienes usuario? Logueate!
Creado por    celciusb
Ver perfil de celciusb celciusb
Hombre Supremo  Mensaje
6,985 84 1,276
Medallas ganadas por este Post
4
Punteadores
Tags
Posts relacionados
Mas Post de     celciusb
Términos y condiciones
Privacidad
Report - DMCA
Contacto
LoPeorDeLaWeb  © 2014 - 2016
Carga   0.396    Mls  
Basado en  PHPost 
Diseño de Kmario19
Adaptado por  jor51