Registrate para interactuar con celciusb

Chaos Dragon: Sekiryuu Seneki | Actualizable
Manga y Anime

Chaos Dragon: Sekiryuu Seneki
Actualizable 720p MP4 / HD Ligero MP4


Episodios 720p MP4: 04/12 | Episodios 720p ligero MP4: 04/12
Última actualización: 05 de Septiembre 2015


¿El país será capaz de recuperar su independencia...?

Chaos Dragon: Sekiryuu Seneki | Actualizable

Chaos Dragon: Sekiryuu Seneki | Actualizable
La historia tiene lugar en Huanli (el Año de Deslumbrante) 3015. Donatia y Kouran, dos países que luchan por la supremacía, están causando que el mundo sea desgarrada por la guerra constante. En medio de la contienda es el país de la isla Cero Kamui, que ha perdido su independencia. El dragón rojo, el dios guardián de Cero Kamui, se sale de control.

Chaos Dragon se basa en el proyecto de ficción dragón rojo , una historia que fue creada por cinco diseñadores de personajes notables: Gen Urobochi (Fate / Zero), Kinoko Nasu (Kara no Kyoukai), Iduki Kougyoku (Mimizuku a Yoru no Ou), Ryohgo Narita (Durarara !!), y Simadoriru (miembro del círculo doujin patrón de la raya).


Chaos Dragon: Sekiryuu Seneki | Actualizable
Chaos Dragon: Sekiryuu Seneki | Actualizable
Chaos Dragon: Sekiryuu Seneki | Actualizable
Chaos Dragon: Sekiryuu Seneki | Actualizable
Chaos Dragon: Sekiryuu Seneki | Actualizable
Chaos Dragon: Sekiryuu Seneki | Actualizable
Chaos Dragon: Sekiryuu Seneki | Actualizable
Chaos Dragon: Sekiryuu Seneki | Actualizable
Chaos Dragon: Sekiryuu Seneki | Actualizable
Chaos Dragon: Sekiryuu Seneki | Actualizable
Chaos Dragon: Sekiryuu Seneki | Actualizable
Chaos Dragon: Sekiryuu Seneki | Actualizable
Chaos Dragon: Sekiryuu Seneki | Actualizable
Chaos Dragon: Sekiryuu Seneki | Actualizable
Chaos Dragon: Sekiryuu Seneki | Actualizable
Chaos Dragon: Sekiryuu Seneki | Actualizable
Chaos Dragon: Sekiryuu Seneki | Actualizable


Chaos Dragon: Sekiryuu Seneki | Actualizable


Chaos Dragon: Sekiryuu Seneki | Actualizable
Chaos Dragon: Sekiryuu Seneki | Actualizable

¡Disfruta de todos los episodios Online!


Chaos Dragon: Sekiryuu Seneki | Actualizable
Chaos Dragon: Sekiryuu Seneki 720p

Audio: Japonés | 250 ~ 280 MB | Subtítulos: Español | Fansub: Aozora no Tenshi | Karaoke: Si


General
Format : MPEG-4
Format profile : Base Media
Codec ID : isom
File size : 266 MiB
Duration : 23mn 59s
Overall bit rate mode : Variable
Overall bit rate : 1 550 Kbps
Encoded date : UTC 2015-07-11 01:35:22
Tagged date : UTC 2015-07-11 01:35:22

Video
ID : 1
Format : AVC
Format/Info : Advanced Video Codec
Format profile : [email protected]
Format settings, CABAC : Yes
Format settings, ReFrames : 4 frames
Codec ID : avc1
Codec ID/Info : Advanced Video Coding
Duration : 23mn 59s
Bit rate : 1 418 Kbps
Maximum bit rate : 9 495 Kbps
Width : 1 280 pixels
Height : 720 pixels
Display aspect ratio : 16:9
Frame rate mode : Constant
Frame rate : 23.976 fps
Color space : YUV
Chroma subsampling : 4:2:0
Bit depth : 8 bits
Scan type : Progressive
Bits/(Pixel*Frame) : 0.064
Stream size : 243 MiB (91%)
Writing library : x264 core 138 r2358 9e941d1
Encoding settings : cabac=1 / ref=3 / deblock=1:0:0 / analyse=0x3:0x113 / me=hex / subme=7 / psy=1 / psy_rd=1.00:0.00 / mixed_ref=1 / me_range=16 / chroma_me=1 / trellis=1 / 8x8dct=1 / cqm=0 / deadzone=21,11 / fast_pskip=1 / chroma_qp_offset=-2 / threads=12 / lookahead_threads=2 / sliced_threads=0 / nr=0 / decimate=1 / interlaced=0 / bluray_compat=0 / constrained_intra=0 / bframes=3 / b_pyramid=2 / b_adapt=1 / b_bias=0 / direct=1 / weightb=1 / open_gop=0 / weightp=2 / keyint=240 / keyint_min=23 / scenecut=40 / intra_refresh=0 / rc_lookahead=40 / rc=2pass / mbtree=1 / bitrate=1418 / ratetol=1.0 / qcomp=0.60 / qpmin=0 / qpmax=69 / qpstep=4 / cplxblur=20.0 / qblur=0.5 / ip_ratio=1.40 / aq=1:1.00
Encoded date : UTC 2015-07-11 01:35:22
Tagged date : UTC 2015-07-11 01:35:24

Audio
ID : 2
Format : AAC
Format/Info : Advanced Audio Codec
Format profile : LC
Codec ID : 40
Duration : 23mn 59s
Bit rate mode : Variable
Bit rate : 128 Kbps
Maximum bit rate : 136 Kbps
Channel(s) : 2 channels
Channel positions : Front: L R
Sampling rate : 48.0 KHz
Compression mode : Lossy
Stream size : 22.0 MiB (8%)
Language : Japanese
Encoded date : UTC 2015-07-11 01:20:27
Tagged date : UTC 2015-07-11 01:35:24

Format
Format version : Version 4 / Version 2
File size : 322 MiB
Duration : 23mn 40s
Overall bit rate : 1 901 Kbps
Encoded date : UTC 2015-05-23 17:41:51
Writing application : mkvmerge v7.5.0 ('Glass Culture') 64bit built on Jan 4 2015 21:03:35
Writing library : libebml v1.3.1 + libmatroska v1.4.2
Attachements : OpenSans-Semibold.ttf
DURATION : 00:23:12.460000000
NUMBER_OF_FRAMES : 273
NUMBER_OF_BYTES : 18234
_STATISTICS_WRITING_APP : mkvmerge v7.5.0 ('Glass Culture') 64bit built on Jan 4 2015 21:03:35
_STATISTICS_WRITING_DATE_UT : 2015-05-23 17:41:51
_STATISTICS_TAGS : BPS DURATION NUMBER_OF_FRAMES NUMBER_OF_BYTES
Format : Matroska




Chaos Dragon: Sekiryuu Seneki HD Lite

Audio: Japonés | 95 ~ 100 MB | Subtítulos: Español | Fansub: Aozora no Tenshi | Karaoke: Si


General
Format : MPEG-4
Format profile : Base Media
Codec ID : isom
File size : 99.1 MiB
Duration : 24mn 0s
Overall bit rate mode : Variable
Overall bit rate : 577 Kbps
Encoded date : UTC 2015-07-09 23:45:59
Tagged date : UTC 2015-07-09 23:45:59

Video
ID : 1
Format : AVC
Format/Info : Advanced Video Codec
Format profile : [email protected]
Format settings, CABAC : Yes
Format settings, ReFrames : 5 frames
Codec ID : avc1
Codec ID/Info : Advanced Video Coding
Duration : 23mn 59s
Bit rate : 510 Kbps
Maximum bit rate : 2 756 Kbps
Width : 1 280 pixels
Height : 720 pixels
Display aspect ratio : 16:9
Frame rate mode : Constant
Frame rate : 23.976 fps
Color space : YUV
Chroma subsampling : 4:2:0
Bit depth : 8 bits
Scan type : Progressive
Bits/(Pixel*Frame) : 0.023
Stream size : 87.6 MiB (88%)
Writing library : x264 core 146 r2538 121396c
Encoding settings : cabac=1 / ref=5 / deblock=1:-1:-1 / analyse=0x3:0x113 / me=umh / subme=8 / psy=1 / psy_rd=1.00:0.00 / mixed_ref=1 / me_range=16 / chroma_me=1 / trellis=1 / 8x8dct=1 / cqm=0 / deadzone=21,11 / fast_pskip=1 / chroma_qp_offset=-2 / threads=6 / lookahead_threads=1 / sliced_threads=0 / nr=0 / decimate=1 / interlaced=0 / bluray_compat=0 / constrained_intra=0 / bframes=3 / b_pyramid=2 / b_adapt=2 / b_bias=0 / direct=3 / weightb=1 / open_gop=0 / weightp=2 / keyint=240 / keyint_min=23 / scenecut=40 / intra_refresh=0 / rc_lookahead=50 / rc=2pass / mbtree=1 / bitrate=510 / ratetol=1.0 / qcomp=0.60 / qpmin=10 / qpmax=51 / qpstep=4 / cplxblur=20.0 / qblur=0.5 / vbv_maxrate=50000 / vbv_bufsize=62500 / nal_hrd=none / filler=0 / ip_ratio=1.40 / aq=1:1.00
Encoded date : UTC 2015-07-09 23:45:59
Tagged date : UTC 2015-07-09 23:46:01

Audio
ID : 2
Format : AAC
Format/Info : Advanced Audio Codec
Format profile : HE-AAC / LC
Codec ID : 40
Duration : 24mn 0s
Bit rate mode : Variable
Bit rate : 64.0 Kbps
Maximum bit rate : 78.7 Kbps
Channel(s) : 2 channels
Channel positions : Front: L R
Sampling rate : 48.0 KHz / 24.0 KHz
Compression mode : Lossy
Stream size : 11.0 MiB (11%)
Encoded date : UTC 2015-07-09 23:15:03
Tagged date : UTC 2015-07-09 23:46:01



Chaos Dragon: Sekiryuu Seneki | Actualizable
¿Que te ha parecido este Anime?


Chaos Dragon: Sekiryuu Seneki | Actualizable
Calidad 720p MP4




Calidad HD Ligero MP4




Chaos Dragon: Sekiryuu Seneki | Actualizable
Si deseas descargar desde Mega o 4Shared
puedes utilizar MiPony Portable

Descargar MiPony Portable



Chaos Dragon: Sekiryuu Seneki | Actualizable

Chaos Dragon: Sekiryuu Seneki | Actualizable
Sin contraseña


Chaos Dragon: Sekiryuu Seneki | Actualizable

Gracias por visitar mi post Visitante, espero que el material sea de tu agrado.

Si lo que encontraste en este Post te sirvió , no te olvides de agradecérselo al Uploader ;
Tu comentario y agradecimiento es su única recompensa y estimulo para seguir compartiendo.
Estadísticas
Creado 11.07.2015 a las 20:08 hs
Categoría Manga y Anime
  • 4
    Medallas
  • 0
    Favoritos
  • 515
    Visitas
  • 8/10
    LPDLW score
  • 8
    Votantes
  • 80
    Puntos
  • 0
    Seguidores
  • 0
    Recomendado
Comentarios
14
Cargando comentarios espera un momento...

Para poder comentar necesitas ser un usuario registrado , ¡ Registrarme Ahora !. O.. ya tienes usuario? Logueate!
Creado por    celciusb
Ver perfil de celciusb celciusb
Hombre Supremo  Mensaje
6,985 84 1,276
Medallas ganadas por este Post
4
Punteadores
Tags
Posts relacionados
Mas Post de     celciusb
Términos y condiciones
Privacidad
Report - DMCA
Contacto
LoPeorDeLaWeb  © 2014 - 2016
Carga   0.309    Mls  
Basado en  PHPost 
Diseño de Kmario19
Adaptado por  jor51