Registrate para interactuar con Saga

Manny (2014)|Documental de Manny Pacquiao|Sub|720p
Documentales

Manny (2014)|Documental de Manny Pacquiao|Sub|720p

Una pelicula documental sobre Manny Pacquiao,en la que se cuenta su vida.


Manny (2014)|Documental de Manny Pacquiao|Sub|720p

Manny (2014)|Documental de Manny Pacquiao|Sub|720p


Manny (2014)|Documental de Manny Pacquiao|Sub|720p
Documental sobre el 8 veces campeón del mundo de boxeo, el filipino Manny Pacquiao.
Un hombre que se sobrepuso a insuperables adversidades para convertirse en uno de los deportistas más queridos y respetados de todos los tiempos. Manny es un duro impacto documental, largometraje que explora los triunfos y las tribulaciones de la sensación del boxeo Filipino Manny Pacquiao.


Manny (2014)|Documental de Manny Pacquiao|Sub|720p

Título original:Manny
Año:2014
Duración:88 min.
País:Estados Unidos
Director:Leon Gast, Ryan Moore
Música:Lorne Balfe
Fotografía:Jez Thierry
Repartoocumentary, Manny Pacquiao, Jimmy Kimmel, Jinkee Pacquiao, Jeremy Piven, Freddie Roach, Mark Wahlberg
Productora:Wonderspun / Revelin Studios
Géneroocumental | Deporte. Boxeo

CALIDAD: 720p
RESOLUCIÓN: 1280x720p
AUDIO: Inglés
SUBTÍTULOS: Si (SRT)
FORMATO: Mkv
TAMAÑO: 1.02 GB
CONTRASEÑA:saga/LoPeorDeLaWeb.li


Format : Matroska
Format version : Version 4 / Version 2
File size : 1.02 GiB
Duration : 1h 27mn
Overall bit rate : 1 670 Kbps
Encoded date : UTC 2015-07-16 19:17:00
Writing application : mkvmerge v7.2.0 ('On Every Street') 32bit built on Sep 13 2014 15:42:11
Writing library : libebml v1.3.0 + libmatroska v1.4.1
Attachements : poster-manny-pacquiao.jpg
DURATION : 01:23:13.615000000
NUMBER_OF_FRAMES : 1229
NUMBER_OF_BYTES : 55744
_STATISTICS_WRITING_APP : mkvmerge v7.2.0 ('On Every Street') 32bit built on Sep 13 2014 15:42:11
_STATISTICS_WRITING_DATE_UTC : 2015-07-16 19:17:00
_STATISTICS_TAGS : BPS DURATION NUMBER_OF_FRAMES NUMBER_OF_BYTES

Video
ID : 1
Format : AVC
Format/Info : Advanced Video Codec
Format profile : [email protected]
Format settings, CABAC : Yes
Format settings, ReFrames : 4 frames
Codec ID : V_MPEG4/ISO/AVC
Duration : 1h 27mn
Bit rate : 1 300 Kbps
Width : 1 280 pixels
Height : 720 pixels
Display aspect ratio : 16:9
Frame rate mode : Constant
Frame rate : 23.976 fps
Color space : YUV
Chroma subsampling : 4:2:0
Bit depth : 8 bits
Scan type : Progressive
Bits/(Pixel*Frame) : 0.059
Stream size : 787 MiB (75%)
Title : Manny
Writing library : x264 core 142 r2479 dd79a61
Encoding settings : cabac=1 / ref=1 / deblock=1:0:0 / analyse=0x1:0x111 / me=hex / subme=2 / psy=1 / psy_rd=1.00:0.00 / mixed_ref=0 / me_range=16 / chroma_me=1 / trellis=0 / 8x8dct=0 / cqm=0 / deadzone=21,11 / fast_pskip=1 / chroma_qp_offset=0 / threads=12 / lookahead_threads=4 / sliced_threads=0 / nr=0 / decimate=1 / interlaced=0 / bluray_compat=0 / constrained_intra=0 / bframes=3 / b_pyramid=2 / b_adapt=1 / b_bias=0 / direct=1 / weightb=1 / open_gop=0 / weightp=1 / keyint=240 / keyint_min=24 / scenecut=40 / intra_refresh=0 / rc_lookahead=10 / rc=abr / mbtree=1 / bitrate=1300 / ratetol=1.0 / qcomp=0.60 / qpmin=0 / qpmax=69 / qpstep=4 / vbv_maxrate=50000 / vbv_bufsize=62500 / nal_hrd=none / filler=0 / ip_ratio=1.40 / aq=1:1.00
Default : Yes
Forced : No
Color primaries : BT.709
Transfer characteristics : BT.709
Matrix coefficients : BT.709
Color range : Limited

Audio
ID : 2
Format : AC-3
Format/Info : Audio Coding 3
Mode extension : CM (complete main)
Format settings, Endianness : Big
Codec ID : A_AC3
Duration : 1h 27mn
Bit rate mode : Constant
Bit rate : 384 Kbps
Channel(s) : 6 channels
Channel positions : Front: L C R, Side: L R, LFE
Sampling rate : 48.0 KHz
Bit depth : 16 bits
Compression mode : Lossy
Delay relative to video : -6ms
Stream size : 241 MiB (23%)
Title : Ingles
Language : English
Default : Yes
Forced : No

Text
ID : 3
Format : UTF-8
Codec ID : S_TEXT/UTF8
Codec ID/Info : UTF-8 Plain Text
Title : Español Latino
Default : Yes
Forced : No



Manny (2014)|Documental de Manny Pacquiao|Sub|720p


Manny (2014)|Documental de Manny Pacquiao|Sub|720p

Para poder ver los links necesitas estar Registrado .
O.. ya tienes cuenta? Logueate!

Manny (2014)|Documental de Manny Pacquiao|Sub|720p
Manny (2014)|Documental de Manny Pacquiao|Sub|720p

Si lo que encontraste en este Post te sirvió , no te olvides de agradecérselo al Uploader ;
Tu comentario y agradecimiento es su única recompensa y estimulo para seguir compartiendo.
Estadísticas
Creado 18.07.2015 a las 17:16 hs
Categoría Documentales
  • 2
    Medallas
  • 0
    Favoritos
  • 245
    Visitas
  • 5/10
    LPDLW score
  • 6
    Votantes
  • 50
    Puntos
  • 0
    Seguidores
  • 0
    Recomendado
Comentarios
6
Cargando comentarios espera un momento...

Para poder comentar necesitas ser un usuario registrado , ¡ Registrarme Ahora !. O.. ya tienes usuario? Logueate!
Creado por    Saga
Ver perfil de Saga Saga
Hombre Pirata  Mensaje
14,663 161 658
Medallas ganadas por este Post
2
Punteadores
Tags
Posts relacionados
Mas Post de     Saga
Términos y condiciones
Privacidad
Report - DMCA
Contacto
LoPeorDeLaWeb  © 2014 - 2016
Carga   1.478    Mls  
Basado en  PHPost 
Diseño de Kmario19
Adaptado por  jor51