Registrate para interactuar con vaquer

"dragon blade [la espada del dragon][2015][1080p][dual]"
Peliculas con audio Dual

"dragon blade [la espada del dragon][2015][1080p][dual]"


saludos aquí les traigo una película épica y triste ala vez ami me agrado bastante se los recomiendo para pasar un buen fin de semana ..



"dragon blade [la espada del dragon][2015][1080p][dual]"


"dragon blade [la espada del dragon][2015][1080p][dual]"

"dragon blade [la espada del dragon][2015][1080p][dual]"


SINOPSIS:
Un decurión de una Legión romana se verá solo y abandonado en medio de China tras una expedición fallida. Será allí donde se cruce con un heroico soldado chino con el que unirá sus fuerzas para combatir a un enemigo aún mayor que amenaza no sólo a China, sino a todo el mundo conocido. (FILMAFFINITY)
CRITICAS:
Curiosamente no soy fan del cine de romanos pero tengo cierta debilidad por cintas como Gladiator y tras ver que esta cinta tenía un buen trío principal protagonizándola decidí verla pese a no ser una producción norteamericana sino una superproducción china que desde luego no tiene que envidiar mucho a los estadounidenses. Daniel Lee con irregularidad a la hora de emocionar en los planos más serios con más estética videoclipera y de tráiler con muchos cortes si logra convencer a la hora de rodar secuencias de acción y coreografías de lucha dejando que los actores se luzcan combinadas de una sublime y sorprendente banda sonora con coros realmente emotivos.


"dragon blade [la espada del dragon][2015][1080p][dual]"


Complete name : I:\peliculas\Dragon.blade.2015.1080p-dual-lat.mp4
Format : MPEG-4
Codec ID : M4V
File size : 1.59 GiB
Duration : 1h 43mn
Overall bit rate mode : Variable
Overall bit rate : 2 195 Kbps
Encoded date : UTC 2016-01-20 00:07:54
Tagged date : UTC 2016-01-20 00:07:54
Writing application : My MP4Box GUI 0.6.0.6 <http://my-mp4box-gui.zymichost.com>

Video
ID : 1
Format : AVC
Format/Info : Advanced Video Codec
Format profile : [email protected]
Format settings, CABAC : Yes
Format settings, ReFrames : 5 frames
Codec ID : avc1
Codec ID/Info : Advanced Video Coding
Duration : 1h 43mn
Bit rate : 1 900 Kbps
Maximum bit rate : 7 458 Kbps
Width : 1 920 pixels
Height : 804 pixels
Display aspect ratio : 2.40:1
Frame rate mode : Constant
Frame rate : 23.976 fps
Color space : YUV
Chroma subsampling : 4:2:0
Bit depth : 8 bits
Scan type : Progressive
Bits/(Pixel*Frame) : 0.051
Stream size : 1.38 GiB (87%)
Title : Dragon.blade.2015.1080p.bluray.x264.psychd.dual-lapumia-1_track1_und.h264
Writing library : x264 core 142 r2479 dd79a61
Encoding settings : cabac=1 / ref=5 / deblock=1:-1:-1 / analyse=0x3:0x113 / me=umh / subme=8 / psy=1 / psy_rd=1.00:0.15 / mixed_ref=1 / me_range=16 / chroma_me=1 / trellis=1 / 8x8dct=1 / cqm=0 / deadzone=21,11 / fast_pskip=1 / chroma_qp_offset=-3 / threads=12 / lookahead_threads=2 / sliced_threads=0 / nr=0 / decimate=1 / interlaced=0 / bluray_compat=0 / constrained_intra=0 / bframes=3 / b_pyramid=2 / b_adapt=2 / b_bias=0 / direct=3 / weightb=1 / open_gop=0 / weightp=2 / keyint=240 / keyint_min=24 / scenecut=40 / intra_refresh=0 / rc_lookahead=50 / rc=2pass / mbtree=1 / bitrate=1900 / ratetol=1.0 / qcomp=0.60 / qpmin=0 / qpmax=69 / qpstep=4 / cplxblur=20.0 / qblur=0.5 / vbv_maxrate=62500 / vbv_bufsize=78125 / nal_hrd=none / filler=0 / ip_ratio=1.40 / aq=1:1.00
Encoded date : UTC 2016-01-20 00:07:54
Tagged date : UTC 2016-01-20 00:08:14
Color primaries : BT.709
Transfer characteristics : BT.709
Matrix coefficients : BT.709
Color range : Limited

Audio #1
ID : 2
Format : AAC
Format/Info : Advanced Audio Codec
Format profile : LC
Codec ID : 40
Duration : 1h 43mn
Bit rate mode : Variable
Bit rate : 162 Kbps
Maximum bit rate : 179 Kbps
Channel(s) : 2 channels
Channel positions : Front: L R
Sampling rate : 48.0 KHz
Compression mode : Lossy
Stream size : 120 MiB (7%)
Title : Dragon.blade.latino_fixed31250.aac
Language : Spanish
Encoded date : UTC 2016-01-20 00:08:06
Tagged date : UTC 2016-01-20 00:08:14

Audio #2
ID : 3
Format : AAC
Format/Info : Advanced Audio Codec
Format profile : LC
Codec ID : 40
Duration : 1h 43mn
Source duration : 1h 43mn
Bit rate mode : Variable
Bit rate : 128 Kbps
Maximum bit rate : 155 Kbps
Channel(s) : 2 channels
Channel positions : Front: L R
Sampling rate : 48.0 KHz
Compression mode : Lossy
Stream size : 95.1 MiB (6%)
Source stream size : 95.1 MiB (6%)
Title : Dragon.blade.2015.1080p.bluray.x264.psychd.dual-lapumia-1_track2_chi.aac
Language : Chinese
Encoded date : UTC 2016-01-20 00:08:10
Tagged date : UTC 2016-01-20 00:08:14

Text
ID : 4
Format : Timed Text
Muxing mode : sbtl
Codec ID : tx3g
Duration : 1h 39mn
Bit rate mode : Variable
Bit rate : 31 bps
Stream size : 22.8 KiB (0%)
Title : Dragon Blade 2015 1080p BluRay x264-PSYCHD.srt
Language : Spanish
Encoded date : UTC 2016-01-20 00:08:14
Tagged date : UTC 2016-01-20 00:08:14




"dragon blade [la espada del dragon][2015][1080p][dual]"
"dragon blade [la espada del dragon][2015][1080p][dual]"

"dragon blade [la espada del dragon][2015][1080p][dual]"

"dragon blade [la espada del dragon][2015][1080p][dual]"

"dragon blade [la espada del dragon][2015][1080p][dual]"

"dragon blade [la espada del dragon][2015][1080p][dual]"

"dragon blade [la espada del dragon][2015][1080p][dual]"



Para poder ver los links necesitas estar Registrado .
O.. ya tienes cuenta? Logueate!



"dragon blade [la espada del dragon][2015][1080p][dual]"

vaquer
Si lo que encontraste en este Post te sirvió , no te olvides de agradecérselo al Uploader ;
Tu comentario y agradecimiento es su única recompensa y estimulo para seguir compartiendo.
Estadísticas
Creado 02.04.2016 a las 18:12 hs
Categoría Peliculas con audio Dual
  • 2
    Medallas
  • 0
    Favoritos
  • 236
    Visitas
  • 4.5/10
    LPDLW score
  • 5
    Votantes
  • 43
    Puntos
  • 0
    Seguidores
  • 0
    Recomendado
Comentarios
9
Cargando comentarios espera un momento...

Para poder comentar necesitas ser un usuario registrado , ¡ Registrarme Ahora !. O.. ya tienes usuario? Logueate!
Creado por    vaquer
Ver perfil de vaquer vaquer
Hombre Supremo  Mensaje
5,124 62 556
Medallas ganadas por este Post
2
Punteadores
Tags
Posts relacionados
Mas Post de     vaquer
Términos y condiciones
Privacidad
Report - DMCA
Contacto
LoPeorDeLaWeb  © 2014 - 2016
Carga   0.426    Mls  
Basado en  PHPost 
Diseño de Kmario19
Adaptado por  jor51